<?xml version="1.0" standalone="no"?>
<!DOCTYPE svg PUBLIC "-//W3C//DTD SVG 1.1//EN" "http://www.w3.org/Graphics/SVG/1.1/DTD/svg11.dtd">
<svg xmlns="http://www.w3.org/2000/svg">
<metadata>Copyright (C) 2017 by original authors @ fontello.com</metadata>
<defs>
<font id="fontello" horiz-adv-x="1000" >
<font-face font-family="fontello" font-weight="400" font-stretch="normal" units-per-em="1000" ascent="850" descent="-150" />
<missing-glyph horiz-adv-x="1000" />
<glyph glyph-name="spin4" unicode="&#xe800;" d="M498 850c-114 0-228-39-320-116l0 0c173 140 428 130 588-31 134-134 164-332 89-495-10-29-5-50 12-68 21-20 61-23 84 0 3 3 12 15 15 24 71 180 33 393-112 539-99 98-228 147-356 147z m-409-274c-14 0-29-5-39-16-3-3-13-15-15-24-71-180-34-393 112-539 185-185 479-195 676-31l0 0c-173-140-428-130-589 31-134 134-163 333-89 495 11 29 6 50-12 68-11 11-27 17-44 16z" horiz-adv-x="1001" />

<glyph glyph-name="caixa_de_entrada" unicode="&#xe801;" d="M652 770c-4 0-11 2-18 2-90 0-181 0-272 0-37 0-46-22-46-56 0-148 0-296-1-444 0-38 16-57 53-56 86 0 171 1 256-1 40-1 54 18 54 55 0 150 1 300 1 450 0 20-3 39-27 50z m-53-38l0 0c-23-49-63-82-90-123-8-13-18-14-29 0-29 39-60 77-97 123 78 0 144 0 216 0z m-245-448l0 0c1 144 1 274 1 419 57-71 102-129 149-186 15-18 13-32 0-48-47-58-94-116-150-185z m30-31l0 0c35 46 65 86 96 125 12 15 22 9 33-5 28-36 57-72 95-119-80 0-147 0-224-1z m151 164l0 0c-11 15-3 26 7 37 23 25 23 52 1 77-18 20-13 35 4 54 31 36 58 75 94 121 0-146 1-281 1-434-41 57-74 101-107 145z m452-370c1-59-32-83-86-86-5 0-801 0-805 0-56 2-89 26-89 86 1 82-1 166 2 175 8 31 78 84 157 115 23 9 47 8 79 2 4-1 6-8 2-11-45-35-84-66-122-97-4-3-4-8-1-11 9-9 30-6 44-6 70 2 143 11 153-95 2-17 15-26 35-26 15 0 267 0 282 0 20 0 33 9 35 26 10 106 83 97 154 95 13 0 34-3 43 6 3 3 3 8 0 11-39 31-78 62-123 97-3 3-2 10 3 11 31 6 55 7 78-2 79-31 150-84 158-115 2-9 0-93 1-175z" horiz-adv-x="1000" />

<glyph glyph-name="unianalises" unicode="&#xe802;" d="M45 75l287-163c13-9 36-9 51 0l287 163c15 8 25 27 25 43v319l-82-37c-15-7-28-27-28-45v-200c0-2-2-5-3-7l-222-126c0 0-2 0-3 0-2 0-4 0-4 0l0 0-223 126c-2 0-3 5-3 5v310l-2 14c-5 13-13 25-25 30l-80 38v-427c-2-16 10-35 25-43z m913 553l-286 164c-15 8-37 8-52 0l-287-164c-15-8-25-26-25-43v-318l80 38c15 8 29 27 29 45v200c0 2 1 5 3 7l222 126c0 0 1 0 3 0 2 0 3 0 3 0l0 0 222-126c2 0 3-5 3-7v-308l2-14c5-13 13-25 25-30l80-38v423c3 19-8 37-22 45z" horiz-adv-x="1000" />

<glyph glyph-name="inovates" unicode="&#xe803;" d="M555 350l0 0c-5 0-12 2-15 3l-188 112c-4 2-9 7-10 12-4 5-5 10-5 15l0 218c0 10 6 22 15 27l160 91 0-58c0-8-7-18-14-23l-93-54c-2-3-5-6-5-8l0-170c0-2 3-7 5-7l147-86c1-2 6-2 8 0l95 55c7 3 20 3 27 0l50-30-162-92c-5-5-10-5-15-5z m-220-313l0 0 0 0c-5 0-8 1-12 3l-141 82c-7 3-12 13-12 20l2 163c0 8 5 17 11 20l144 80c3 2 6 3 11 3 5 0 9-1 12-3l142-82c6-3 11-13 11-20l-1-163c0-8-5-17-12-20l-143-80c-2-2-7-3-12-3z m2 320l0 0c-2-2-2-2-2-2l-112-63c-1 0-1-4-1-5l0-127c0-2 1-3 1-5l110-63c0 0 2 0 4 0l0 0c1 0 1 0 3 0l112 63c1 0 1 3 1 3l0 127c0 2-1 3-1 5l-110 63c-2 2-4 2-5 4l0 0z m160-504l0 0c-4 0-7 0-9 2l-81 47c-4 3-7 10-7 15l0 93c0 5 3 12 8 13l82 47c2 2 5 2 8 2 4 0 7 0 9-2l81-47c5-3 9-8 9-13l0-93c0-5-4-12-9-14l-81-45c-4-3-7-5-10-5z m0 37l0 0c0 0 1 0 0 0l63 35c0 0 0 0 0 0l0 72c0 0 0 0 0 0l-63 36c0 0 0 0 0 0l-64-35c0 0 0 0 0 0l0-71c0 0 0 0 0 0l64-37z m276 588l-50 30c-3 2-6 5-10 10-1 4-3 9-3 14l0 143c0 3-2 7-3 10-2 3-5 7-7 8l-125 74c-3 1-7 5-8 10-2 5-4 8-4 13v57l7-4c0 0 0 0 2 0l188-111c3-2 8-7 10-12 3-5 5-10 5-15l-2-227z" horiz-adv-x="1000" />

<glyph glyph-name="whats-2" unicode="&#xe804;" d="M11-150c25 77 48 146 73 215 9 27 8 49-5 76-90 181-65 392 70 540 135 148 305 200 497 145 194-56 313-189 347-389 46-270-136-518-407-560-95-14-189-3-276 40-26 12-47 12-72 4-67-23-135-44-202-65-6-2-12-3-25-6l0 0z m118 115l0 0c49 16 89 27 127 41 21 7 39 6 60-6 82-48 173-61 266-46 228 38 376 254 334 483-49 270-359 416-599 282-205-115-275-366-156-569 15-24 17-45 7-70-14-35-24-70-39-115l0 0z m129 509c3 40 15 75 44 102 10 9 25 16 38 18 33 4 41-3 53-34 8-20 14-41 23-60 13-27 7-48-12-69-28-29-27-30-5-64 34-55 79-97 136-125 32-16 36-15 59 9 42 44 42 44 98 15 12-6 24-12 36-19 26-15 28-21 23-51-4-21-14-38-31-50-37-26-76-36-121-24-151 43-252 143-320 280-11 22-14 48-21 72l0 0z" horiz-adv-x="1000" />

<glyph glyph-name="blogger" unicode="&#xe805;" d="M550 850l-300-1c-128-18-237-97-246-231-3-13-2-25-2-37-2-59-1-122-1-182 1-96-2-173 0-244 1-209 124-306 348-302 55 1 119 1 192-1 72 0 128-5 177 2 221 31 264 179 273 299l0 137c-6 140-108 178-194 181 9 35 12 82 3 146-10 124-98 221-250 233z m-251-187l245 0c135-18 129-164 0-185l-245 0c-135 18-129 164 0 185z m-56-404l450-2c136-17 136-183 5-203l-450 2c-139 17-137 182-5 203z" horiz-adv-x="991" />

<glyph glyph-name="leaf-1" unicode="&#xe806;" d="M236 646q182 106 506 66 168-22 196-50 4-6-2-10-76-40-130-109t-78-132-65-132-93-105q-138-96-382-4-66-76-114-176-12-24-47-7t-25 39q44 100 129 193t176 153 176 106 141 68l54 20q-14 0-41-1t-104-14-148-38-162-84-161-141q-22 242 174 358z" horiz-adv-x="940" />

<glyph glyph-name="appstore" unicode="&#xe807;" d="M1 351q-1-18-1-36 0-68 20-144 26-97 83-184 89-136 172-137 30 0 78 21t95 21l4 0q46 0 91-20 47-22 76-22 49 1 91 41t85 104q31 48 65 121-50 19-85 57t-48 85q-10 35-9 70l0 24q4 48 34 92t78 70q-38 48-89 75t-103 27q-48 0-105-21t-86-22q-30 0-90 22t-102 21q-58 0-114-33t-96-93q-37-56-44-139z m415 258q-3 15-3 30 0 65 53 129 27 33 70 56t82 26q2-15 2-30 0-69-50-132-28-36-70-58-41-22-80-21l-4 0z" horiz-adv-x="860" />

<glyph glyph-name="calculator" unicode="&#xe808;" d="M573-119l-417 0q-65 0-110 46t-46 111l0 625q0 65 46 110t110 46l417 0q65 0 110-46t46-110l0-625q0-65-46-111t-110-46z m-417 834q-21 0-37-15t-15-37l0-625q0-21 15-37t37-16l417 0q21 0 36 16t16 37l0 625q0 21-16 37t-36 15l-417 0z m0-312q0 51 53 51 51 0 51-51 0-53-51-53-53 0-53 53z m157 0q0 51 52 51 51 0 51-51 0-53-51-53-52 0-52 53z m156 0q0 51 52 51 52 0 52-51 0-53-52-53-52 0-52 53z m-313-156q0 51 53 51 51 0 51-51 0-53-51-53-53 0-53 53z m157 0q0 51 52 51 51 0 51-51 0-53-51-53-52 0-52 53z m156 0q0 51 52 51 52 0 52-51 0-53-52-53-52 0-52 53z m-313-157q0 52 53 52 51 0 51-52 0-52-51-52-53 0-53 52z m157 0q0 52 52 52 51 0 51-52 0-52-51-52-52 0-52 52z m156 0q0 52 52 52 52 0 52-52 0-52-52-52-52 0-52 52z m52 520l-312 0 0-51 312 0 0 51z m52 53l0-156-417 0 0 156 417 0z" horiz-adv-x="729" />

<glyph glyph-name="pagelines" unicode="&#xe809;" d="M0-125q0 11 7 18t18 7q97 0 180 60t140 164q-20-8-40-13t-46-7-51 1-52 16-51 33-47 56-42 81q64 27 120 32t93-4 70-31 49-43 31-46q30 73 45 162-4 0-10-1t-26-2-39 1-46 5-49 13-47 24-42 36-30 53-16 71q39 16 74 20t63 0 52-17 41-28 31-34 23-35 16-31 8-22l3-9q6 68 6 109-4 3-12 8t-27 25-35 40-30 52-19 63 7 71 39 77q41-14 71-34t47-43 27-47 11-50 0-48-7-43-11-34-9-24l-4-8q0-3 0-28t0-40q2 4 5 10t17 24 29 33 39 31 51 24 63 9 74-14q-1-43-12-79t-28-58-39-40-45-25-48-14-44-5-38 1-26 2l-9 2q-13-82-41-158 3 4 10 10t28 23 43 29 55 24 66 11 72-13 76-43q-17-45-42-77t-51-50-55-26-57-8-54 5-48 12-39 15-25 13l-10 6q-63-128-161-201t-215-74q-10 0-18 7t-7 18z" horiz-adv-x="785.7" />

<glyph glyph-name="lock-open-alt" unicode="&#xe80a;" d="M0 46v322q0 22 16 38t38 15h17v179q0 103 74 177t176 73 177-73 73-177q0-15-10-25t-25-11h-36q-14 0-25 11t-11 25q0 59-42 101t-101 42-101-42-41-101v-179h410q23 0 38-15t16-38v-322q0-22-16-37t-38-16h-535q-23 0-38 16t-16 37z" horiz-adv-x="642.9" />

<glyph glyph-name="down-circle" unicode="&#xe80b;" d="M1000 349q0-136-67-251t-182-182-251-67-251 67-182 182-67 251 67 251 182 182 251 67 251-67 182-182 67-251z m-500-186l232 233-71 71-161-161-161 161-71-71z" horiz-adv-x="1000" />

<glyph glyph-name="reunioes" unicode="&#xe80c;" d="M369 242c0 10 2 20 0 29-5 33 8 43 41 41 28-1 33-6 31-34-3-31-5-66 3-97 9-29 22-34 45-15 26 23 55 37 91 37 28 0 56 0 82 0 31 1 56 13 66 45 11 40 0 73-30 92-11 7-14 56-3 67 12 12 25 0 35-4 55-27 82-89 68-158-11-64-55-105-118-110-27-1-55 0-82-1-39 0-70-15-82-56-4-18-14-18-29-16-59 8-113 67-116 127-2 18-2 36-2 53l0 0z m290 215c-2 18-2 36-3 54-10 75-53 119-128 124-62 5-125 7-185-1-81-10-118-63-115-153 2-72 49-123 123-129 29-2 59-2 90-2 30 0 51-13 66-38 23-39 34-42 75-19 61 36 80 93 77 164z m-75-51c-2-17-9-31-23-38-13-6-20 12-28 18-25 21-53 33-85 33-30 0-61-2-91 2-45 4-64 29-62 78 2 46 20 64 67 67 25 2 51 0 76 0 26 0 52 2 78 0 50-3 68-24 69-73 0-30 0-58-1-87z m416-66c0 138-56 263-146 353l0 0 0 0c-90 90-215 146-352 146s-263-56-353-146l0 0 0 0c-90-90-146-215-146-353 0-137 56-260 145-352l1-2c90-90 215-146 354-146 138 0 263 56 354 146l0 0c87 90 143 217 143 354z m-175-319l0 0c-84-83-199-132-325-132-126 0-241 51-325 133l-1 2c-82 82-133 193-133 318 0 124 51 238 134 318l0 0c84 82 199 131 325 131s241-51 325-131l0 0c83-82 134-194 134-318s-51-239-134-321l0 0z" horiz-adv-x="1000" />

<glyph glyph-name="win8" unicode="&#xe80d;" d="M986 850l-549-80 0-398 549 0 0 478z m-587-86l-399-58 0-334 399 0 0 392z m-399-430l0-339 399-58 0 397-399 0z m437 0l0-403 549-81 0 484-549 0z" horiz-adv-x="986" />

<glyph glyph-name="gplus" unicode="&#xe80e;" d="M0 32q0 87 89 155t215 68l54 0q-42 40-42 86 0 29 16 58-10-1-29-1-104 0-170 65t-66 160q0 91 82 159t187 68l310 0-69-50-98 0q47-18 74-68t26-111q0-93-88-162-37-29-48-46t-11-42q0-19 27-48t54-49q61-43 85-88t23-113q0-90-82-157t-222-66q-133 0-225 50t-92 132z m112 33q0-69 59-118t145-48q119 0 173 44t53 117q0 19-4 32-3 11-7 21t-12 19-14 16-19 16-21 15-25 18-26 17q-39 12-77 12-90 1-157-47t-68-114z m66 559q11-79 61-136t109-58q59-2 94 52t25 133-59 134-110 57-95-51-25-131z m555-24l0 50 200 0 0 200 50 0 0-200 201 0 0-50-201 0 0-201-50 0 0 201-200 0z" horiz-adv-x="1184" />

<glyph glyph-name="chrome" unicode="&#xe80f;" d="M498 850c-147-1-291-67-387-186l154-237c39 111 150 182 267 170l414-22c-42 84-108 157-196 208-79 46-166 67-252 67z m-416-226c-52-79-82-173-82-274 0-250 183-457 423-494l128 252c-116-22-233 39-281 146l-188 370z m885-94l-282-15c76-89 82-221 13-317l-226-347c94-6 190 15 278 66 216 125 304 387 217 613z m-467-11c-93 0-169-76-169-169s76-169 169-169 169 76 169 169-76 169-169 169z" horiz-adv-x="1000" />

<glyph glyph-name="ie" unicode="&#xe810;" d="M1-2q-3 35 7 59 39 140 92 239 114 216 313 352l0 14q-59-25-119-65t-102-81-76-78-50-60l-17-23q-2 59 16 115t45 94 54 67 47 43l19 13q4 2 10 6t28 13 43 19 55 17 64 12 70 2 74-12q64 47 128 73t98 29l33 3q50 5 77-16t31-55 0-68-12-60l-9-24-5 5q21 57 20 94t-17 56-37 29-36 10l-16 2q-4 0-12 0t-32-5-49-13-60-25-69-41q69-11 123-42t86-70 54-85 31-89 13-78 4-56l-1-22-557 0q-3-42 10-73t34-45 41-23 36-9l15-1q4 0 11 1t27 5 34 14 31 29 22 46l292 0q-16-59-47-107t-68-77-78-51-79-32-68-16-48-7l-19 0q-78 0-107 6-60-47-127-73t-103-30l-36-3q-46 0-78 24t-41 56-13 68z m75 5q0-24 3-42t8-29l4-9q4-3 11-8t33-13 57-8 82 16 108 50q-8 2-22 6t-50 18-69 31-67 48-53 64q-22-34-33-67t-12-57z m283 424l265 0q1 36-12 63t-32 39-38 19-33 8l-14 1q-6 0-15-1t-33-8-42-19-33-39-13-63z" horiz-adv-x="943" />

<glyph glyph-name="fontsize" unicode="&#xe811;" d="M0 49l227 602h146l208-552 123 326h91l142-376h-96l-26 76h-135l-27-76h-207l-42 121h-214l-43-121h-147z m222 231h149l-74 216z m478-87h94l-47 136z" horiz-adv-x="937.5" />

<glyph glyph-name="video" unicode="&#xe812;" d="M0-29l0 758 1000 0 0-758-1000 0z m123 123l754 0 0 512-754 0 0-512z m266 82l0 340 293-170z" horiz-adv-x="1000" />

<glyph glyph-name="folder-open" unicode="&#xe813;" d="M0 57v508q0 36 25 60t60 25h29q3 33 27 55t58 23h190q34 0 58-23t27-55h351q35 0 60-25t25-60v-84h66q35 0 55-25t14-60l-99-339q-6-35-36-60t-66-25h-759q-35 0-60 25t-25 60z m85 170l49 169q7 35 37 60t66 25h588v84h-740v-338z m40-170h719q5 0 12 5t7 11l0 3 1 4 92 316h-719q-5 0-11-5t-7-11l-1-4-1-4z" horiz-adv-x="1047.4" />

<glyph glyph-name="down-circled" unicode="&#xe814;" d="M460 810q190 0 325-135t135-325-135-325-325-135-325 135-135 325 135 325 325 135z m0-820q148 0 254 106t106 254q0 150-106 255t-254 105-254-105-106-255q0-148 106-254t254-106z m90 554l0-206 112 0-202-190-202 190 112 0 0 206 180 0z" horiz-adv-x="920" />

<glyph glyph-name="logo" unicode="&#xe815;" d="M131 679c-9 0-16 6-16 15 0 6 3 11 8 13l246 97c9 4 19 6 30 6 10 0 20-2 29-5l246-97c5-3 9-8 9-14 0-8-7-15-15-15l-1 0-536 0z m-108-538c1-9-6-16-14-16-6 0-11 3-14 8l-96 246c-4 9-6 19-6 30 0 10 2 20 5 29l0 0 97 245c2 6 8 10 14 10 8 0 14-7 14-15l0-1 0-536z m-2-97c-8 0-16-6-16-15 0-6 4-11 9-13l245-97c10-4 20-6 31-6 10 0 20 2 28 5l246 98c6 2 10 7 10 13 0 8-7 15-16 15l0 0-537 0z m644 2c0-9 6-16 15-16 6 0 11 3 13 8l97 246c4 9 6 19 6 30 0 10-2 20-5 29l-98 246c-2 5-7 9-13 9-8 0-15-7-15-15l0-1 0-536z m-115 81c-1-6 4-11 10-11 4 0 7 3 9 6l67 171c3 6 5 14 5 21 0 7-1 14-4 20l0 0-68 171c-1 4-5 7-9 7-6 0-10-5-10-11l0 0 0-374z m-411 95c0-6-4-11-10-11-4 0-8 2-10 6l-67 171c-3 6-4 13-4 21 0 7 1 14 3 20l68 171 0 0c2 4 5 7 10 7 5 0 10-5 10-11l0-1 0-373z m73 342c-6 0-11 4-11 10 0 4 3 7 6 9l171 68c7 2 14 4 21 4 7 0 14-1 20-4l0 0 171-68c4-1 7-5 7-9 0-6-5-10-11-10l0 0-374 0z m-109-405c-7 1-11-4-11-10 0-4 2-7 6-9l170-68c7-2 14-4 21-4 7 0 14 1 20 4l171 68c4 1 7 5 7 9 0 6-5 11-11 11l0-1-373 0z" horiz-adv-x="707" />

<glyph glyph-name="bus" unicode="&#xe816;" d="M150 775l0-50-100 0c-25 0-50-25-50-50l0-650 50 0 0-100 100 0 0 100 350 0 0-100 100 0 0 100 50 0 0 650c0 25-25 50-50 50l-100 0 0 50z m-50-150l450 0 0-250-450 0 0 100z m50-400c28 0 50-22 50-50 0-28-22-50-50-50-28 0-50 22-50 50 0 28 22 50 50 50z m350 0c28 0 50-22 50-50 0-28-22-50-50-50-28 0-50 22-50 50 0 28 22 50 50 50z" horiz-adv-x="650" />

<glyph glyph-name="check" unicode="&#xe817;" d="M0-150l0 1000 646 0-164-164-318 0 0-672 672 0 0 319 164 164 0-647-1000 0z m234 623l133 131 129-129 361 363 133-132-361-364-133-133z" horiz-adv-x="1000" />

<glyph glyph-name="download" unicode="&#xe818;" d="M968 198q18-10 27-32t3-40l-28-154q-4-20-22-33t-40-13l-816 0q-22 0-40 13t-22 33l-28 154q-10 48 32 72l158 108 98 0-170-130 178 0q8 0 12-8l40-110 300 0 40 110q8 8 12 8l178 0-170 130 98 0z m-208 322l-260-244-260 244 166 0 0 256 190 0 0-256 164 0z" horiz-adv-x="1000" />

<glyph glyph-name="up-circle" unicode="&#xe819;" d="M1000 349q0-136-67-251t-182-182-251-67-251 67-182 182-67 251 67 251 182 182 251 67 251-67 182-182 67-251z m-339-118l71 71-232 233-232-233 71-71 161 161z" horiz-adv-x="1000" />

<glyph glyph-name="award" unicode="&#xe81a;" d="M496 231l3 0 117-223-125-11-78-92-104 164-104-164-84 94-121 9 118 223 1 2c1-9 5-15 10-23 9-12 22-20 39-29 13-5 26-7 37-7 13 0 25 2 33 7 6-5 12-11 20-15 12-7 28-12 47-12 18 0 33 5 46 12 8 4 13 10 18 15 11-5 22-7 35-7 11 0 22 2 36 7 19 9 30 17 39 29 5 8 10 14 12 23 2-2 3-2 5-2z m100 295c5-7 8-18 8-31s-3-22-8-30c-6-14-78-10-92-10l0 0c12-6 80-29 81-42 3-10 0-20-5-33-10-27-29-34-40-34-7 0-62 33-65 35l-4 2 2-2c7-7 65-57 60-70-3-10-8-18-17-27-12-13-23-19-37-19-8 0-54 54-61 61l-2 2 0-4c5-10 37-76 29-86-6-8-14-15-26-19-9-4-18-6-25-6-16 0-43 70-50 82l0 0c0-12 4-85-9-91-7-6-19-9-30-9-14 0-24 3-31 9-13 6-9 79-9 91l0 3-1-3c-5-12-33-82-50-82-6 0-15 2-25 6-11 4-19 11-25 19-9 10 22 76 27 86l3 4-5-2c-8-7-53-61-60-61-11 0-24 6-36 19-9 9-15 17-17 27-3 13 50 63 58 70l4 2-5-2c-3-2-58-35-63-35-14 0-30 7-42 34-5 13-7 23-5 33 1 13 70 36 82 42l0 0c-12 0-85-4-92 10-7 8-8 18-8 30s1 24 8 31c7 12 80 8 92 8l3 0-3 1c-12 5-81 29-82 44-2 9 0 20 5 31 12 28 28 33 42 33 5 0 60-33 63-35l5-2-4 4c-8 8-61 56-58 70 2 9 8 18 17 28 12 11 25 16 36 16 7 0 52-50 60-59l5-4-3 5c-5 10-36 75-27 88 6 7 14 12 25 17 10 4 19 5 25 5 17 0 45-68 50-82l1-3 0 3c0 14-4 86 9 94 7 5 17 7 31 7 11 0 23-2 30-7 13-8 9-80 9-94l0 0c7 14 34 82 50 82 7 0 16-1 25-5 12-5 20-10 26-17 8-13-24-78-29-88l0-5 2 4c7 9 53 59 61 59 14 0 25-5 37-16 9-10 14-19 17-28 5-14-53-62-60-70l-2-4 4 2c3 2 58 35 65 35 11 0 30-5 40-33 5-11 8-22 5-31-1-15-69-39-81-44l-3-1 3 0c14 0 86 4 92-8z m-291-225c106 0 193 88 193 194 0 108-87 195-193 195-107 0-196-87-196-195 0-106 89-194 196-194z m0 45c-84 0-151 67-151 149 0 84 67 150 151 150 83 0 148-66 148-150 0-82-65-149-148-149z" horiz-adv-x="616" />

<glyph glyph-name="hourglass" unicode="&#xe81b;" d="M0-37v70q0 22 12 49t24 46 38 55l24 33t26 36 22 33 18 35 5 30-5 30-18 35-22 33-26 36l-24 32q-26 37-38 55t-24 46-12 49v70q0 34 24 58t59 24h419q35 0 59-24t25-58v-70q0-22-12-49t-24-46-38-55l-24-32t-27-36-22-33-17-36-6-29 6-30 17-35 22-33 27-37l24-32q25-36 38-55t24-46 12-49v-70q0-34-25-58t-59-24h-419q-34 0-59 24t-24 58z m100 35h40q0 9 2 17t9 18 12 16 17 18 19 16 22 17 23 16 25 18 24 17q8-6 26-19t28-19 25-19 25-19 19-19 16-19 10-19 4-20h40v35q0 7-14 31-8 14-42 63-53 75-71 108-34 64-34 115 0 26 7 54t25 57 30 50 36 51l7 10q33 47 42 64 6 9 9 17t4 11l1 2v35h-386v-35q1-8 13-30 10-17 43-64 53-75 71-108 34-63 34-114 0-27-8-54t-25-58-29-49-36-52q-1-1-2-2t-2-2-2-3-1-3q-34-49-43-63-13-24-13-31v-35z" horiz-adv-x="585.9" />

<glyph glyph-name="hash" unicode="&#xe81c;" d="M2 207q4 25 25 42t46 16h149l36 170h-135q-28 0-46 21-17 22-12 51 5 25 26 42t46 16h149l31 150q6 26 26 42t46 17q30 0 47-21t11-51l-29-137h167l32 150q5 26 26 42t46 17q29 0 46-21 18-21 11-51l-29-137h136q28 0 46-21 17-22 11-51-5-25-25-42t-46-16h-149l-37-170h136q28 0 47-21 17-22 11-51-6-26-26-42t-46-17h-149l-32-150q-5-25-25-42t-46-16q-29 0-47 21-17 22-11 50l29 137h-167l-33-150q-5-25-25-42t-46-16q-28 0-46 21-17 22-12 50l30 137h-136q-29 0-46 22-18 20-11 51z m352 58h168l36 170h-168z" horiz-adv-x="912.1" />

<glyph glyph-name="picture" unicode="&#xe81d;" d="M0 11v678q0 37 26 63t63 27h893q37 0 63-27t26-63v-678q0-37-26-63t-63-27h-893q-36 0-63 27t-26 63z m71 0q0-8 6-13t12-5h893q7 0 13 5t5 13v678q0 8-5 13t-13 5h-893q-7 0-12-5t-6-13v-678z m72 53v107l178 179 90-89 285 285 233-232v-250h-786z m0 465q0 44 31 75t76 32 76-32 31-75-31-76-76-32-76 32-31 76z" horiz-adv-x="1071.4" />

<glyph glyph-name="qrcode" unicode="&#xe81e;" d="M0-7v357h357v-357h-357z m0 428v358h357v-358h-357z m71-356h215v214h-215v-214z m0 428h215v214h-215v-214z m72-357v71h71v-71h-71z m0 428v72h71v-72h-71z m286-571v357h214v-71h71v71h72v-214h-215v71h-71v-214h-71z m0 428v358h357v-358h-357z m71 72h214v214h-214v-214z m71-500v71h72v-71h-72z m0 571v72h72v-72h-72z m143-571v71h72v-71h-72z" horiz-adv-x="785.7" />

<glyph glyph-name="rss-alt" unicode="&#xe81f;" d="M18 15q0 112 112 112t111-112-111-112-112 112z m336 56q0 68-50 118t-118 50l0 112q116 0 197-82 83-85 83-198l-112 0z m-169 391l0 112q144 0 258-71t177-180q68-116 68-252l-112 0q0 112-54 201t-140 139q-89 51-197 51z m0 223l0 112q153 0 287-60t227-153 153-226 59-287l-112 0q0 130-50 242t-130 192-192 130-242 50z" horiz-adv-x="928" />

<glyph glyph-name="menu-1" unicode="&#xe820;" d="M68 62q0-30 21-51t51-21h793q30 0 51 21t21 51-21 51-51 21h-793q-29 0-51-21t-21-51z m0 288q0-30 21-51t51-21h793q30 0 51 21t21 51-21 51-51 21h-793q-29 0-51-21t-21-51z m0 288q0-30 21-51t51-21h793q30 0 51 21t21 51-21 51-51 21h-793q-29 0-51-21t-21-51z" horiz-adv-x="1073.2" />

<glyph glyph-name="desktop" unicode="&#xe821;" d="M0 154v607q0 37 26 63t63 26h893q37 0 63-26t26-63v-607q0-37-26-63t-63-27h-303q0-20 9-43t17-40 9-24q0-14-10-25t-25-11h-286q-15 0-25 11t-11 25q0 8 9 25t18 39 9 43h-304q-36 0-63 27t-26 63z m71 142q0-7 6-12t12-5h893q7 0 13 5t5 12v465q0 7-5 12t-13 6h-893q-7 0-12-6t-6-12v-465z" horiz-adv-x="1071.4" />

<glyph glyph-name="termometro" unicode="&#xe822;" d="M577 322c25-13 46-30 61-53 18-25 28-57 28-95 0-42-20-85-52-117v0c-29-30-70-50-115-50s-86 20-116 50l0 0c-31 32-51 75-51 117 0 38 10 70 27 95 16 23 37 40 61 53l1 295h-1c0 20 9 39 22 53l0 0c14 13 33 22 53 22h7c21 0 40-9 53-22h0c14-14 22-32 22-53h0l0-295 0 0z m-68-55c47-5 83-44 83-92 0-52-42-94-93-94-52 0-93 42-93 94 0 48 36 87 83 92h2v325h16v-325h2l0 0z m83-29c-12 18-31 31-53 40l-17 7 0 19 0 313h0c0 5-3 10-6 14l0 0c-4 3-8 5-14 5h-7c-5 0-10-2-13-5l0 0c-4-4-6-9-6-14h0l0-313 0-19-18-7c-22-9-40-22-53-40-11-16-17-37-17-64 0-27 13-56 34-77h0c21-21 47-34 77-34 29 0 56 13 76 34l0-1c22 22 35 51 35 78 0 27-7 48-18 64l0 0z" horiz-adv-x="1000" />

<glyph glyph-name="newslatter" unicode="&#xe823;" d="M105 353c0 122 0 245 0 367 0 54 28 82 82 82 190 0 380 0 571 0 52 0 81-29 81-81 0-137 1-274 0-411-1-27 4-42 35-37 18 3 24-6 24-24-1-61-1-122 0-183 0-21-6-30-27-27-25 4-35-7-32-32 1-7 0-14 0-21 0-53-27-85-81-85-191-1-382-2-573 0-54 0-80 31-80 86 0 122 0 244 0 366 0 0 0 0 0 0l0 0z m151-200l0 0c66 38 125 74 185 107 15 8 33 13 50 13 82 1 164 1 246 0 21 0 28 5 28 28-1 132-1 265 0 398 0 21-5 29-27 28-177 0-355 0-532 0-19 0-27-5-27-26 0-231 0-462-1-694 0-22 7-30 30-30 176 1 352 1 529 0 27 0 27 13 28 33 2 24-8 30-30 29-83-1-166 0-248 0-10 0-21-1-29 3-66 35-131 72-202 111l0 0z m199 92l0 0c-31-18-66-28-82-52-13-18-13-59 0-77 17-23 52-32 82-50 0 61 0 117 0 179l0 0z m72 342c-52 0-104 0-157 0-14-1-25 1-25 20-1 20 10 23 26 23 104-1 208-1 312 0 15 0 26-1 26-22 0-22-12-22-27-21-52 0-103 0-155 0l0 0z m-1-126c-52 0-104 0-156 0-15 0-25 2-25 21 0 18 8 22 24 22 105 0 210 0 315 0 15 0 25-2 25-21 1-21-11-22-26-22-52 0-105 0-157 0l0 0z m0-126c-52 0-103 0-154 0-16 0-28 1-28 22 0 21 12 21 28 21 103 0 207 0 310 0 16 0 27 0 27-21 0-21-11-22-27-22-52 0-104 0-156 0l0 0z m-259 239c-22 1-35 12-36 33 0 22 12 36 33 36 22 1 35-12 36-33 1-22-12-34-33-36l0 0z m33-91c-1-21-12-34-34-35-22 0-34 13-35 34 0 22 12 35 34 36 22 0 33-13 35-35l0 0z m0-127c-2-21-14-34-36-33-21 0-33 14-33 35 1 22 14 35 36 34 21-1 32-15 33-36l0 0z" horiz-adv-x="1000" />

<glyph glyph-name="left-circle" unicode="&#xe824;" d="M1000 349q0-136-67-251t-182-182-251-67-251 67-182 182-67 251 67 251 182 182 251 67 251-67 182-182 67-251z m-453-232l71 71-161 161 161 161-71 71-233-232z" horiz-adv-x="1000" />

<glyph glyph-name="tumblr" unicode="&#xe825;" d="M0 440l0 142q60 20 101 55 41 33 67 86 26 51 35 127l143 0 0-253 237 0 0-157-237 0 0-256q0-86 9-112 9-24 34-39 34-20 76-20 77 0 151 49l0-157q-63-31-116-43-52-12-112-12-68 0-122 17-55 19-89 50-36 31-52 68-14 34-14 105l0 350-111 0z" horiz-adv-x="616" />

<glyph glyph-name="help-circled-alt" unicode="&#xe826;" d="M0 350q0 95 37 182t100 149 149 100 183 37q95 0 182-37t149-100 100-149 37-182q0-95-37-182t-100-150-149-100-182-37q-96 0-183 37t-149 100-100 150-37 182z m117 0q0-71 28-137t75-112 112-75 137-28 136 28 112 75 75 112 28 137q0 95-47 176t-128 128-176 47-177-47-128-128-47-176z m216 176l31-101q45 29 93 29 49 0 49-23 0-4-2-8t-3-5-6-5-7-5-8-4l-8-4-40-21q-22-12-28-25t-6-37v-37h117v16q0 7 0 10t3 6 6 5q1 1 11 5t17 8 19 11 18 13q19 17 29 37t11 55q0 49-42 83t-106 34q-83 0-148-37z m48-334q0-32 21-49t55-17q33 0 54 17t20 49-20 49-54 18q-35 0-55-18t-21-49z" horiz-adv-x="937.5" />

<glyph glyph-name="vcard-1" unicode="&#xe827;" d="M990-66l-834 0q-65 0-110 46t-46 110l0 520q0 65 46 111t110 46l834 0q65 0 111-46t45-111l0-520q0-65-45-110t-111-46z m-834 729q-21 0-37-16t-15-37l0-520q0-21 15-37t37-15l834 0q21 0 36 15t15 37l0 520q0 22-15 37t-36 16l-834 0z m313-469l-209 0q-21 0-36 16t-15 37 15 36 36 15l209 0q21 0 37-15t15-36-15-37-37-16z m0 209l-209 0q-21 0-36 15t-15 36 15 37 36 16l209 0q21 0 37-16t15-37-15-36-37-15z m209 25q0 105 103 105t104-105q0-104-104-104t-103 104z m103-148q57 0 93-22t37-53q0-15-37-26t-93-11q-58 0-94 11t-36 26q0 30 36 53t94 22z" horiz-adv-x="1146" />

<glyph glyph-name="book" unicode="&#xe828;" d="M6 96q0 2 1 15t3 20q0 5-2 12t-2 11q1 6 5 12t9 13 9 13q13 21 25 51t17 51q2 6 0 17t0 16q2 6 9 15t10 13q12 20 23 51t14 51q1 5-1 17t0 16q2 7 12 17t13 13q10 14 23 47t16 54q0 4-2 14t-1 15q1 4 5 10t10 13 10 11q4 7 9 17t8 20 9 20 11 18 15 13 20 6 26-3l0-1q21 5 28 5h425q41 0 63-32t10-72l-152-506q-20-66-40-86t-72-19h-485q-15 0-21-8-6-9-1-24 14-39 81-39h515q16 0 31 8t19 24l168 550q4 13 3 32 21-8 33-24 22-32 10-72l-154-505q-10-36-42-60t-69-25h-515q-43 0-83 30t-55 74q-14 37-1 70z m269 343q-3-7 1-12t11-6h339q7 0 14 6t10 12l11 36q3 7-1 13t-11 5h-339q-8 0-14-5t-10-13z m46 143q-2-7 1-12t11-6h339q8 0 15 6t9 12l12 36q2 7-2 12t-11 6h-339q-7 0-14-6t-9-12z" horiz-adv-x="928.6" />

<glyph glyph-name="location-1" unicode="&#xe829;" d="M586 556q0-7-1-21t-18-71-43-130-88-202-143-283q-82 153-142 282t-88 204-43 128-18 73l-2 20q0 121 86 207t207 86 207-86 86-207z m-207 0q0 36-25 61t-61 25-61-25-25-61 25-61 61-25 61 25 25 61z" horiz-adv-x="586" />

<glyph glyph-name="headphones" unicode="&#xe82a;" d="M938 350l0-135q0-1-1-3t-1-3q2-12 2-41l0-104q0-75-54-129t-129-54-129 54-53 129l0 104q0 59 28 105t75 66q-3 83-63 141t-144 58-144-58-64-141q47-19 75-66t29-105l0-104q0-75-54-129t-128-53-129 53-54 129l0 104q0 29 1 41 0 1 0 3t-1 3l0 135q0 194 138 332t331 137 331-137 138-332z m-834 0l0-51 52 0q0 51 2 51 7 99 67 174l-46 46q-75-98-75-220z m156-286l0 104q0 34-16 56t-35 23l-99 0q-6-44-6-79l0-104q0-31 23-54t56-24 55 24 22 54z m386 469q14 14 40 39t39 38l33 33q-120 120-289 120t-289-120l93-93 18-17q73 72 178 72t177-72z m188-469l0 104q0 35-6 79l-99 0q-20 0-36-23t-15-56l0-104q0-31 22-54t55-23 56 23 23 54z m0 235l0 51q0 122-75 220l-46-46q61-77 68-174l0-51 53 0z" horiz-adv-x="938" />

<glyph glyph-name="signal-1" unicode="&#xe82b;" d="M424 644c-31 0-58 26-58 58s27 57 58 57c32 0 57-26 57-57s-25-58-57-58z m327-744c9-24-2-50-26-59-5-2-10-2-16-2-18 0-35 10-41 29l-14 35-460 0-14-35c-6-19-24-29-41-29-6 0-11 0-16 2-24 9-35 35-27 59l278 714 42 29 17 0 41-29z m-178 212l-44 111-71-71 77-77z m-149 382l-70-181 140 0z m87-226l-170 0 85-84z m-191-41l-44-112 42-40 77 77z m-109-279l170 0-122 121z m215 17l78 78-78 77-77-77z m45-17l165 0-46 119z m165 582l-37 37c26 25 40 61 40 95 0 30-13 63-36 88l35 35c32-36 55-81 55-128 0-44-18-89-57-127z m134-72l-39 39c44 42 67 100 65 161 2 60-21 119-65 162l38 37c56-55 84-129 85-203-1-69-25-140-84-196z m-551 331l36-37c-26-25-40-62-40-94s13-65 36-89l-35-35c-33 34-55 81-55 128 0 43 18 88 58 127z m-135 73l39-40c-44-43-67-100-67-162 0-60 23-117 67-161l-38-39c-56 57-84 130-85 204 1 69 25 140 84 198z" horiz-adv-x="854" />

<glyph glyph-name="star-workshops" unicode="&#xe82c;" d="M741-118q-19 0-39 12l-213 121-215-121q-44-24-84 3-41 29-31 79l50 243q-10 9-39 35t-45 40l-99 90q-37 35-21 82t66 54l244 26 102 225q22 47 72 47 47 0 71-47l101-225 245-27q48-4 65-52t-21-83l-183-166 50-242q7-35-16-64t-60-29z m-425 343q-1-4-7-36t-17-84-20-92l190 107q27 14 52 0l190-107-44 213q-6 29 16 49l161 148-217 23q-30 4-41 30l-90 199-90-199q-13-26-43-30l-216-23 161-148q21-19 15-50z" horiz-adv-x="976" />

<glyph glyph-name="cancel-circle" unicode="&#xe82d;" d="M1000 349q0-136-67-251t-182-182-251-67-251 67-182 182-67 251 67 251 182 182 251 67 251-67 182-182 67-251z m-339-232l71 71-161 161 161 161-71 71-161-161-161 161-71-71 161-161-161-161 71-71 161 161z" horiz-adv-x="1000" />

<glyph glyph-name="chart-bar" unicode="&#xe82e;" d="M0 11v678q0 37 26 63t63 27h893q37 0 63-27t26-63v-678q0-37-26-63t-63-27h-893q-36 0-63 27t-26 63z m71 0q0-8 6-13t12-5h893q7 0 13 5t5 13v678q0 8-5 13t-13 5h-893q-7 0-12-5t-6-13v-678z m72 53v215h143v-215h-143z m214 0v500h143v-500h-143z m214 0v357h143v-357h-143z m215 0v572h143v-572h-143z" horiz-adv-x="1071.4" />

<glyph glyph-name="narede" unicode="&#xe82f;" d="M880 27c-34-32-52-7-72 12-70 70-140 140-210 211-121 121-243 241-363 363-18 17-39 33-48 55 10 26 24 29 45 20 136-59 271-118 406-178 24-10 43-29 53-53 64-143 126-286 189-430l0 0z m-730 406c19 16 30 11 40 7 85-37 170-74 254-110 29-13 51-30 64-60 38-92 78-183 118-274 2-6 2-13-14-27-42 27-75 71-113 107-42 40-82 82-123 122-39 40-79 78-117 118-37 39-80 72-109 117l0 0z" horiz-adv-x="1000" />

<glyph glyph-name="swimming" unicode="&#xe830;" d="M556 675c-8 0-21-5-28-8l-200-97c-26-12-36-51-19-75l61-82-223-174 103-33 134 44c5 2 11 3 16 3s10-1 16-3l134-44 70 24-192 278 152 76c30 15 28 41 25 57-3 14-21 34-49 34z m94-150c-55 0-100-45-100-100 0-55 45-100 100-100 55 0 100 45 100 100 0 55-45 100-100 100z m-550-350c-5 0-12-2-16-3l-84-28 0-103 100 34 134-47c6-2 11-3 16-3 5 0 11 2 16 3l134 47 134-47c6-2 11-3 16-3 5 0 11 2 16 3l134 47 150-50 0 103-134 44c-5 2-11 3-16 3s-10-1-16-3l-134-44-134 44c-6 2-11 3-16 3s-11-2-16-3l-134-44-134 44c-7 2-11 3-16 3z" horiz-adv-x="850" />

<glyph glyph-name="cw" unicode="&#xe831;" d="M0 350q0 87 34 166t92 137 136 92 167 34q82 0 158-31t137-88l72 72q16 18 39 8 22-9 22-33v-250q0-14-10-25t-26-11h-250q-23 0-32 23-10 22 7 38l77 77q-82 77-194 77-58 0-111-23t-91-61-62-91-22-111 22-111 62-91 91-61 111-23q66 0 125 29t100 82q4 6 13 7 8 0 14-5l76-77q5-4 6-11t-5-13q-60-74-147-114t-182-41q-87 0-167 34t-136 92-92 137-34 166z" horiz-adv-x="857.1" />

<glyph glyph-name="attach-1" unicode="&#xe832;" d="M0 48q0-69 48-118 49-49 117-49t118 49l481 484q65 65 65 159 0 93-65 158t-157 65-158-65l-366-368 55-56 366 369q43 43 103 43t103-43q43-43 43-103t-43-103l-482-484q-26-26-63-26t-62 26q-25 25-25 62t25 63l401 404q9 8 21 8t22-8q8-9 8-21 0-12-8-21l-301-303 54-56 301 304q31 31 31 76 0 46-31 76-31 32-76 32t-75-32l-402-404q-48-49-48-118z" horiz-adv-x="829.6" />

<glyph glyph-name="zoom-out" unicode="&#xe833;" d="M0 386q0 80 31 152t84 126 125 84 153 31 152-31 126-84 84-126 31-152q0-123-69-223l191-191q21-21 21-51t-21-50-51-21q-30 0-50 21l-191 191q-100-69-223-69-80 0-153 31t-125 83-84 126-31 153z m143 0q0-103 73-177t177-73 176 73 74 177-74 176-176 74-177-74-73-176z m71-18v36q0 7 6 12t12 5h322q7 0 12-5t5-12v-36q0-7-5-13t-12-5h-322q-7 0-12 5t-6 13z" horiz-adv-x="928.6" />

<glyph glyph-name="stop" unicode="&#xe834;" d="M0 4v691q0 26 19 45t45 21h693q27 0 45-19t19-46v-691q0-27-19-46t-45-20h-693q-26 0-45 19t-19 46z" horiz-adv-x="821.3" />

<glyph glyph-name="pinterest" unicode="&#xe835;" d="M0 491q0 63 27 125t76 115 130 86 178 33q159 0 261-98t102-231q0-171-86-282t-224-112q-45 0-84 21t-56 51l-40-158q-5-19-13-38t-17-38-19-34-19-30-17-24-13-16l-6-8q-3-4-8-3t-6 6q0 1-1 14t-3 27-3 38-1 44 3 48 7 48q11 47 74 313-8 16-13 39t-5 36l-1 15q0 64 33 107t78 42q37 0 58-24t20-62q0-23-8-56t-23-77-20-71q-10-45 18-78t73-33q79 0 131 90t51 216q0 97-63 159t-176 61q-126 0-204-81t-79-194q0-67 38-113 13-15 8-32-2-5-6-23t-6-23q-2-11-10-14t-18 0q-59 24-88 83t-30 136z" horiz-adv-x="774" />

<glyph glyph-name="bancas" unicode="&#xe836;" d="M256 66c-33-6-46 4-40 40 7 24 7 52 10 77 4 18 7 34-8 49-6 8-10 23-3 31 24 31 18 74 38 107 13 23 1 28-17 33-23 6-44 14-67 21-8 1-18 3-18 13 0 10 10 11 18 13 113 34 224 71 338 107 13 3 24 1 36-2 106-34 214-67 321-102 10-3 26-3 26-16 0-16-18-15-28-18-105-33-209-66-314-98-22-7-40-5-61 1-53 18-105 33-157 51-23 8-38 3-45-21-6-28-28-56 0-84 5-5 7-18 4-23-28-46-7-93-2-139 10-33 5-48-31-40z m270 82c-44 2-85 5-124 18-77 25-87 40-81 118 5 50 7 55 51 33 105-49 208-46 312 2 29 13 44 15 46-28 4-88-10-111-97-131-36-8-74-10-107-12z m487 202c0 138-56 262-146 353l0 0 0 0c-90 90-214 145-352 145s-262-55-353-145l0 0 0 0c-90-91-146-215-146-353 0-138 56-261 145-353l1-1c91-90 215-146 354-146 138 0 263 56 355 146l0 0c85 92 142 216 142 354z m-175-320l0 0c-84-82-199-131-325-131-126 0-241 51-324 133l-2 2c-82 82-133 193-133 318 0 124 51 237 135 318l0 0c83 82 198 131 324 131s241-51 325-131l0 0c83-82 134-194 134-318s-52-240-134-322l0 0z" horiz-adv-x="1000" />

<glyph glyph-name="calendario" unicode="&#xe837;" d="M805 555c0 33-20 49-51 51-15 1-31 1-47 0-22-2-35 1-33 28 1 13-5 26-21 24-15-1-19-15-19-26 4-26-11-31-32-28-15 2-31 2-48 0-21-1-36 2-33 28 2 11-1 25-16 25-18 1-21-14-20-27 4-27-13-29-32-27-14 1-27 1-38 0-25-2-46-2-41 32 1 10-5 20-18 22-10 1-20-5-18-14 5-52-33-39-61-39-57 0-72-15-72-70 0-135 0-271 0-405 0-53 15-67 69-67 77 0 154 0 231 0 80 0 159 0 239 0 35 0 59 14 59 50 2 150 2 297 2 443z m-72-454c-76 2-151 0-226 0-74 0-148 2-222 0-29 0-39 6-39 38 2 132 0 264 0 396 0 18-2 40 25 33 22-6 60 26 65-25 2-13 3-27 18-29 20-2 23 16 21 29-1 23 12 27 30 25 16-2 31-2 48 0 22 2 39 0 36-31-2-12 3-23 18-25 13 0 19 10 18 20-5 38 19 36 44 34 13 0 26 0 38 0 18 2 31-1 29-24-2-15 2-31 21-30 17 0 18 17 18 30 5 51 45 18 66 24 26 7 25-14 25-31 0-134 0-267 0-401 1-27-9-33-33-33z m-348 93c-28 2-51-8-51 30 0 31 19 29 38 29 20 0 43 7 41-29-1-31-15-33-28-30z m120 2c-21-2-38-2-36 29 0 32 18 28 38 30 23 0 39 0 39-33-2-36-23-24-41-26z m129 0c-21-3-36-2-36 29 0 37 22 28 41 30 22 2 36 0 38-30 0-39-24-27-43-29z m-260 241c16-2 39 10 39-25 0-32-18-29-38-28-18 2-41-9-41 27 0 29 19 29 40 26z m131-54c-21-2-38-3-36 28 0 34 21 24 39 26 20 2 38 3 38-28-2-34-23-25-41-26z m139 1c-29-3-46-3-44 28 0 36 25 23 41 25 21 2 38 3 38-30-4-34-28-21-35-23z m-272-95c-16 0-38-6-38 27 0 34 22 26 40 26 18 0 39 6 39-26 0-33-20-27-41-27z m133 0c-23-3-36 0-36 30 0 34 23 23 39 24 22 2 38 2 36-29 0-34-23-21-39-25z m138 2c-30-3-45-3-45 28 0 36 25 23 41 24 22 2 38 4 38-29-2-36-26-20-34-23z m357 59c0 138-56 262-146 353l0 0 0 0c-92 90-216 147-354 147s-262-57-352-147l0 0 0 0c-91-91-148-215-148-353 0-138 56-262 146-353l2-1c90-90 214-146 354-146 137 0 262 56 354 146l0 0c88 92 144 216 144 354z m-175-320l0 0c-84-82-199-131-325-131-126 0-241 51-325 133l-1 2c-82 82-133 193-133 318 0 124 51 237 134 318l0 0c84 82 199 131 325 131s241-51 325-131l0 0c83-82 134-194 134-318s-51-240-134-322l0 0z" horiz-adv-x="1000" />

<glyph glyph-name="lock" unicode="&#xe838;" d="M640 476q20 0 40-19t20-41l0-390q0-48-48-66l-60-18q-42-16-96-16l-290 0q-56 0-98 16l-60 18q-48 18-48 66l0 390q0 22 15 41t35 19l100 0 0 70q0 110 51 170t149 60 149-60 51-170l0-70 90 0z m-390 90l0-90 200 0 0 90q0 52-27 81t-73 29-73-29-27-81z" horiz-adv-x="700" />

<glyph glyph-name="visitas" unicode="&#xe839;" d="M785 509c-46 26-119 74-139 74-21 0-107-54-108-56-15-13-28-11-46 0-46 30-94 56-112 56-32 0-123-64-126-66-20-8-26-23-26-46 2-49 0-96 0-146 0-49 0-96 0-145 0-14-5-28 10-38 15-10 26 1 36 10 49 36 100 62 106 62 10 0 58-23 105-61 18-14 35-14 54-1 35 23 84 60 107 60 18 0 70-39 107-60 32-20 42-13 42 24 0 100 0 200 0 300 5 12 3 25-10 33z m-421-247c0-14-11-19-20-23-23-15-47-30-77-48 0 97 0 187 0 277 0 13 10 18 20 23 23 15 47 30 79 48-2-99-2-187-2-277z m133-68c-10 5-15 7-18 9-35 13-72 47-74 54-2 5-5 50-5 86 0 66 0 123 0 196 31-20 59-36 85-53 10-6 12-13 12-23 0-88 0-177 0-269z m118 46c-26-15-51-29-84-49 0 52 0 97 0 141 0 20 0 38 0 57 0 40 2 79 2 86 1 14 38 32 97 60 0-90 0-177 0-264 0-13-2-23-15-31z m147-49c-32 20-59 36-85 51-6 5-13 10-13 20 0 90 0 180 0 277 33-20 59-36 85-51 8-5 13-13 13-23 0-90 0-179 0-274z m250 146c0 138-56 262-146 352l0 0 0 0c-91 91-215 146-353 146s-262-55-352-146l0 0 0 0c-90-90-146-214-146-352 0-138 56-261 144-353l2-1c90-90 214-146 354-146 138 0 262 56 354 146l0 0c87 92 143 216 143 354z m-174-318l0 0c-84-82-199-131-325-131-126 0-241 50-324 133l-2 1c-82 82-133 194-133 318 0 125 51 238 135 318l0 0c83 82 198 131 324 131s241-50 325-131l0 0c83-82 134-193 134-318s-52-239-134-321l0 0z" horiz-adv-x="1000" />

<glyph glyph-name="resize-full" unicode="&#xe83a;" d="M784 111l127 128 0-336-335 0 128 130-128 127 79 79z m-431 686l-129-127 128-127-80-80-126 128-128-129 0 335 335 0z m0-637l-129-127 129-130-335 0 0 336 128-128 128 128z m558 637l0-335-127 129-128-128-79 80 127 127-128 127 335 0z" horiz-adv-x="928" />

<glyph glyph-name="star-filled" unicode="&#xe83b;" d="M297 498q69 152 114 252 6 15 24 15t23-15l114-252q164-18 274-30 15-3 21-18t-6-27l-204-187q33-161 55-270 3-15-10-25t-27-2l-240 136q-144-81-240-136-15-9-28 2t-11 25l56 270q-122 112-204 187-12 11-6 26t21 19z" horiz-adv-x="869" />

<glyph glyph-name="download-outline" unicode="&#xe83c;" d="M936 64l2-261q0-22-16-37t-37-15l-832 0q-22 0-37 15t-16 37q0 261 1 261 0 11 2 16l105 313q12 35 48 35l29 0-35 36q-46 46-46 110t46 110q31 31 76 41t87-3l0 71q0 65 45 110t111 46 110-46 46-110l0-71q41 13 86 3t77-41q46-46 46-110t-46-110l-35-36 28 0q37 0 49-35l105-313q1-5 1-16z m-712 546q-15-15-15-37t15-36l245-244 245 245q15 15 15 36t-15 36-37 15-37-15l-119-118 0 301q0 21-15 37t-37 15-37-15-16-37l0-301-118 118q-17 17-38 17-20 0-36-17z m-30-286l-86-260 723 0-87 260-96 0-179-177-179 177-96 0z m640-469l0 157-730 0 0-157 730 0z" horiz-adv-x="938" />

<glyph glyph-name="barcode" unicode="&#xe83d;" d="M0-82l0 864 84 0 0-864-84 0z m123 0l0 864 20 0 0-864-20 0z m70 0l0 864 63 0 0-864-63 0z m92 0l0 864 28 0 0-864-28 0z m104 0l0 864 41 0 0-864-41 0z m56 0l0 864 18 0 0-864-18 0z m61 0l0 864 19 0 0-864-19 0z m45 0l0 864 82 0 0-864-82 0z m111 0l0 864 43 0 0-864-43 0z m102 0l0 864 9 0 0-864-9 0z m25 0l0 864 27 0 0-864-27 0z m68 0l0 864 20 0 0-864-20 0z m61 0l0 864 82 0 0-864-82 0z" horiz-adv-x="1000" />

<glyph glyph-name="globe-alt" unicode="&#xe83e;" d="M346-66l0 51q-193 0-331 138-15 15-15 37t15 37 37 15 37-15q106-106 257-106 153 0 259 106t106 257q0 153-106 259l-37 36 107 107q15 15 37 15t37-15 14-37-15-36l-35-36q102-128 102-293 0-193-137-331-97-96-227-125l0-64 208 0q21 0 37-15t15-37-15-37-37-16l-520 0q-21 0-37 16t-16 37 16 37 37 15l207 0z m-312 520q0 129 92 221t220 92 221-92 92-221-92-220-221-92-220 92-92 220z" horiz-adv-x="815" />

<glyph glyph-name="fast-backward" unicode="&#xe83f;" d="M0 16v667q0 26 18 44t44 19h123q25 0 43-19t18-44v-285l543 335q30 21 52 8t22-52v-286l534 330q30 21 52 8t22-52v-679q0-39-22-51t-52 7l-534 330v-286q0-39-22-51t-52 7l-543 336v-286q0-26-18-44t-43-18h-123q-26 0-44 18t-18 44z" horiz-adv-x="1471.7" />

<glyph glyph-name="mobile" unicode="&#xe840;" d="M480 840q42 0 71-29t29-71l0-780q0-40-29-70t-71-30l-380 0q-40 0-70 30t-30 70l0 780q0 42 30 71t70 29l380 0z m-190-940q30 0 50 15t20 35q0 22-20 36t-50 14q-28 0-49-15t-21-35 21-35 49-15z m210 150l0 660-420 0 0-660 420 0z" horiz-adv-x="580" />

<glyph glyph-name="clock" unicode="&#xe841;" d="M460 810q190 0 325-135t135-325-135-325-325-135-325 135-135 325 135 325 325 135z m0-820q150 0 255 106t105 254q0 150-105 255t-255 105q-148 0-254-105t-106-255q0-148 106-254t254-106z m36 620l0-244 150-150-50-50-170 170 0 274 70 0z" horiz-adv-x="920" />

<glyph glyph-name="monitor" unicode="&#xe842;" d="M900 790q42 0 71-30t29-70l0-550q0-42-29-77t-69-43l-218-44 86-38q50-28-20-28l-500 0q-98 0 32 52l36 14-220 44q-40 8-69 43t-29 77l0 550q0 40 30 70t70 30l800 0z m0-646l0 556-800 0 0-556 800 0z" horiz-adv-x="1000" />

<glyph glyph-name="at" unicode="&#xe843;" d="M0 340q0 197 130 334 136 144 350 144 175 0 288-98 121-105 121-278 0-135-77-233-76-97-174-97-50 0-78 31-28 31-28 65 0 1 1 4t0 5q0 1 1 5t0 6q-22-45-47-69-46-46-112-46-67 0-111 52-45 52-45 145 0 109 68 203 69 95 166 95 57 0 91-34 25-28 32-62l20 75h104l-71-260q-3-12-7-28t-5-19q-3-14-3-26 0-18 11-34 11-16 35-16 48 0 96 67 48 69 48 179 0 165-131 237-80 45-183 45-188 0-302-125-102-111-102-270 0-176 120-278 107-90 260-90 105 0 195 42 50 22 103 63l13 10q4 3 10 5t14 3 15-4 13-16q6-17 3-29t-8-19l-7-7q-77-66-169-101-92-35-189-35-229 0-355 155-104 128-104 304z m340-41q0-44 18-71 18-27 52-27 59 0 97 97 37 98 37 153 0 32-17 54-17 21-47 21-58 0-99-77-41-77-41-150z" horiz-adv-x="888.7" />

<glyph glyph-name="to-end" unicode="&#xe844;" d="M0 25v679q0 41 21 46t64-18l537-339v311q0 21 18 39t38 18h114q39 0 62-17t22-40v-679q0-23-22-40t-62-17h-114q-21 0-38 18t-18 39v283l-537-340q-43-19-64-4t-21 61z" horiz-adv-x="876.5" />

<glyph glyph-name="print" unicode="&#xe845;" d="M866 564c40 0 75-35 75-78l0-366c0-42-35-77-75-77l-76 0 34-153-691 0 27 153-82 0c-45 0-78 35-78 77l0 366c0 43 33 78 78 78l96 0 0 117 34 0 0 129 527 0 0-129 34 0 0-117 97 0z m-623 199l0-292 457 0 0 292-457 0z m-113-389c30 0 55 24 55 54 0 28-25 53-55 53-29 0-54-25-54-53 0-30 25-54 54-54z m63-438l567 0-47 242-484 0z m252 113l-139 0 0 35 139 0 0-35z m198 0l-139 0 0 35 139 0 0-35z" horiz-adv-x="941" />

<glyph glyph-name="lock-open-1" unicode="&#xe846;" d="M640 450q20 0 40-20t20-40l0-390q0-20-14-39t-34-25l-60-20q-52-16-96-16l-290 0q-46 0-98 16l-60 20q-20 6-34 25t-14 39l0 390q0 22 15 41t35 19l400 0 0 140q0 110-100 110t-100-110l0-40-100 0 0 20q0 110 51 170t149 60q200 0 200-230l0-120 90 0z" horiz-adv-x="700" />

<glyph glyph-name="linkedin" unicode="&#xe847;" d="M0 730q0 50 35 83t91 32q55 0 89-32 35-33 35-86 0-48-34-80-35-33-92-33l-1 0q-55 0-89 33t-34 83z m13-875l0 668 222 0 0-668-222 0z m345 0l222 0 0 373q0 35 8 54 14 34 43 58t71 23q112 0 112-151l0-357 222 0 0 383q0 148-70 225t-185 76q-129 0-201-111l0-2-1 0 1 2 0 95-222 0q2-32 2-199t-2-469z" horiz-adv-x="1036" />

<glyph glyph-name="book-2" unicode="&#xe848;" d="M600 630l35 0 0-672-502 0c-74 0-133 52-133 128l0 581c0 41 34 75 75 75l465 0 0-576-407 0c-52 0-88-28-88-78l0-2c0-50 36-83 88-83l467 0 0 627z m-60-562l-402 0c-12 0-22 7-22 19 0 10 10 16 22 16l402 0 0-35z" horiz-adv-x="635" />

<glyph glyph-name="inbox" unicode="&#xe849;" d="M0 29v269q0 34 14 68l133 308q5 14 20 24t29 9h465q14 0 29-9t20-24l133-308q14-34 14-68v-269q0-15-10-26t-26-10h-785q-15 0-25 10t-11 26z m110 285h176l53-107h179l53 107h176q0 2-1 5t-2 4l-118 277h-395l-118-277q-1-1-2-4t-1-5z" horiz-adv-x="857.1" />

<glyph glyph-name="pencil" unicode="&#xe84a;" d="M938 605q22-22 22-55t-22-55l-570-570q-22-21-60-38t-73-17l-235 0 0 234q0 35 17 74t38 60l570 570q23 22 55 22t55-22z m-794-426l65-64 431 433-64 63z m91-205q14 0 33 8-10 10-27 26t-50 50-56 56l-22 22q-9-21-9-32l0-78 52-52 79 0z m74 40l432 432-63 64-433-431z m469 469l67 67-165 165-67-66z" horiz-adv-x="960" />

<glyph glyph-name="plus-circle" unicode="&#xe84b;" d="M1000 349q0-136-67-251t-182-182-251-67-251 67-182 182-67 251 67 251 182 182 251 67 251-67 182-182 67-251z m-440-58h235v118h-235v235h-118v-235h-236v-118h236v-236h118v236z" horiz-adv-x="1000" />

<glyph glyph-name="ok" unicode="&#xe84c;" d="M1179 778q-250-222-600-750l-115-179q-144 180-464 500l107 107 286-250q150 150 279 272t206 187 131 111 77 59l21 14q4 0 11-2t26-19 35-50z" horiz-adv-x="1179" />

<glyph glyph-name="flow-tree" unicode="&#xe84d;" d="M868 112q72-34 72-112 0-50-35-85t-85-35-85 35-35 85q0 78 72 112l0 114q0 78-76 78l-100 0q-44 0-78 12l0-204q72-34 72-112 0-50-35-85t-85-35-85 35-35 85q0 78 72 112l0 204q-30-12-76-12l-100 0q-34 0-53-19t-22-33-3-26l0-114q72-34 72-112 0-50-35-85t-85-35-85 35-35 85q0 78 72 112l0 114q0 64 43 118t131 54l100 0q76 0 76 52l0 140q-72 34-72 110 0 50 35 85t85 35 85-35 35-85q0-76-72-110l0-140q0-52 78-52l100 0q86 0 129-54t43-118l0-114z m-678-112q0 30-21 50t-49 20-48-20-20-50q0-28 20-48t48-20 49 20 21 48z m212 700q0-28 20-48t48-20 49 20 21 48q0 30-21 50t-49 20-48-20-20-50z m138-700q0 30-21 50t-49 20-48-20-20-50q0-28 20-48t48-20 49 20 21 48z m280-68q28 0 49 20t21 48q0 30-21 50t-49 20-48-20-20-50q0-28 20-48t48-20z" horiz-adv-x="940" />

<glyph glyph-name="calendar-inv" unicode="&#xe84e;" d="M744 685l167 0 0-782-893 0 0 782 168 0 0-56q0-46 33-79t79-33 78 33 33 79l0 56 112 0 0-56q0-46 33-79t79-33 78 33 33 79l0 56z m-446-669l0 111-112 0 0-111 112 0z m0 223l0 112-112 0 0-112 112 0z m223-223l0 111-112 0 0-111 112 0z m0 223l0 112-112 0 0-112 112 0z m111-223l112 111-112 0 0-111z m112 223l0 112-112 0 0-112 112 0z m-503 391l0 112q0 23 17 39t40 16 40-16 15-39l0-112q0-24-16-40t-39-16q-24 0-40 16t-17 40z m335 0l0 112q0 23 16 39t40 16q23 0 40-16t16-39l0-112q0-24-16-40t-39-16-40 16-17 40z" horiz-adv-x="928" />

<glyph glyph-name="chat-2" unicode="&#xe84f;" d="M992 193c5 41 8 219 1 260-22 174-119 276-293 287-141 10-285 15-426-3-182-23-269-141-264-349 3-167 111-282 280-295 67-5 136-4 205-4 66 0 117-29 149-85 54-88 77-97 172-46 150 81 171 199 176 235z m-135 24c-4-55-47-106-82-121-31-13-42 26-62 43-57 47-121 73-195 73-69 0-138-3-205 4-105 11-177 103-172 216 5 105 75 182 182 187 57 3 115 0 172 0 61 0 121 3 180 0 112-8 186-77 184-169 0-67 3-167-2-233z m-536 263c20 0 38-9 50-23 9-12 14-25 14-41 0-17-5-32-16-43-12-13-28-21-48-21-18 0-32 6-44 18-11 11-20 28-20 46 0 18 7 34 20 46 12 11 26 18 44 18z m187-2c20 0 38-8 49-23 10-12 15-25 15-41 0-16-5-31-16-43-12-13-28-21-48-21-18 0-33 7-44 18-11 12-20 28-20 46 0 18 7 34 20 46 10 11 26 18 44 18z m187 2c20 0 38-9 49-23 10-12 15-25 15-41 0-17-5-32-16-43-12-13-28-21-48-21-18 0-33 6-44 18-12 11-20 28-20 46 0 18 7 34 20 46 11 11 28 18 44 18z" horiz-adv-x="1000" />

<glyph glyph-name="plus-circled" unicode="&#xe850;" d="M0 350q0 117 58 215t155 156 216 58 215-58 156-156 57-215-57-215-156-156-215-58-216 58-155 156-58 215z m179-36q0-14 10-25t25-10h143v-143q0-15 11-25t25-11h71q15 0 25 11t11 25v143h143q14 0 25 10t11 25v72q0 14-11 25t-25 10h-143v143q0 15-11 25t-25 11h-71q-15 0-25-11t-11-25v-143h-143q-14 0-25-10t-10-25v-72z" horiz-adv-x="857.1" />

<glyph glyph-name="instagram" unicode="&#xe851;" d="M749 849h-498c-138 0-249-111-249-248v-502c0-137 111-248 249-248h498c138 0 250 111 250 248v502c0 136-112 248-250 248z m157-750c0-86-70-156-157-156h-498c-87 0-157 70-157 156v324h197c-14-30-23-64-23-100 0-130 107-236 237-236 131 0 237 106 237 236 0 36-8 70-23 100h187v-324z m-499 224c0 54 44 98 98 98 54 0 98-44 98-98 0-54-44-98-98-98-54 0-98 44-98 98z m499 192h-264c-39 28-86 44-137 44-51 0-98-16-137-44h-274v86c0 86 70 156 157 156h498c87 0 157-70 157-156v-86h0z m-100 186h-85c-15 0-28-12-28-27v-86c0-15 13-27 28-27h85c16 0 28 12 28 27v86c0 15-12 27-28 27z" horiz-adv-x="1000" />

<glyph glyph-name="tourvirtual" unicode="&#xe852;" d="M387 566l132-70 12-146-133 67-11 149 0 0z m-63 105c-124-77-117-195-119-211 0-45 15-91 41-132 26-41 61-67 103-91 130-84 395-209 395-209 0 2-23 302-40 440-2 24-3 40-9 60-1 2-1 4-2 5 0 1 0 1 0 1-6 20-15 40-27 58-72 117-225 151-342 79l0 0z m237-377l0 0c-93-58-215-30-273 63-58 92-30 215 63 273 92 58 215 30 273-63 58-93 30-215-63-273l0 0z m-335 407l-58 88 21 12 82-35-39 59 20 10 58-88-21-12-81 34 38-57-20-11z m547-825l20 14c5-6 10-8 16-9s11 1 18 4c7 4 11 8 13 13 2 4 2 8 0 11-2 2-4 3-6 4-3 1-6 1-10 0-3-1-10-3-20-6-13-4-23-5-30-4-10 1-17 5-21 12-3 4-5 9-4 15s3 11 7 16c5 5 11 10 19 15 13 7 25 10 35 9 10-1 17-6 23-14l-21-12c-4 4-8 6-12 6-4 1-9-1-15-4-7-3-11-7-13-11-1-3-1-5 0-8 2-2 4-3 7-3 4-1 12 1 23 5 12 3 21 5 28 6 6 1 12 0 17-3 6-2 10-6 14-11 3-5 5-11 4-17 0-6-3-12-8-18-4-5-11-11-21-16-13-7-25-10-35-9-11 1-20 6-28 15z m33 672c-6 9-9 17-10 25-1 6 0 12 2 18 1 6 4 11 8 15 5 6 12 12 21 16 15 9 30 12 45 9 15-3 27-12 36-26 10-14 12-28 8-41-4-13-13-24-29-33-16-8-31-11-45-8-15 3-27 11-36 25z m21 13c7-10 15-16 24-18 9-2 17-1 26 3 8 5 14 12 16 20 2 8 0 17-7 27-7 10-15 16-23 18-9 3-17 1-26-4-9-5-14-11-16-19-3-8 0-17 6-27z m-667-503l-58 88 21 12 48-73 53 29 10-15-74-41z" horiz-adv-x="1000" />

<glyph glyph-name="skype" unicode="&#xe853;" d="M0 577q0 113 80 193t193 80q78 0 145-42 36 7 80 7 195 0 333-138t138-332q0-49-11-101 28-59 28-121 0-113-80-193t-193-80q-68 0-129 32-45-8-86-8-194 0-332 138t-138 333q0 47 9 94-37 65-37 138z m221-366q0-41 30-85 71-104 246-104 50 0 97 11t87 34 66 64 25 94q0 58-29 98t-74 58-95 33-96 23-73 26-30 44q0 33 37 49t74 16q40 0 66-12t38-30 21-35 25-30 39-13q27 0 48 19t20 46-15 54q-30 55-95 80t-138 25q-46 0-89-9t-83-29-64-56-25-87q0-66 40-106t97-57 115-29 97-33 40-59q0-29-23-49t-50-27-57-7q-38 0-64 11t-39 27-22 35-18 35-23 27-37 10q-28 0-48-17t-21-45z" horiz-adv-x="986" />

<glyph glyph-name="enviar-email" unicode="&#xe854;" d="M247 4c-24 2-38 14-47 34-24 51-48 101-72 152-27 58-53 115-79 173-6 12-12 25-15 38-5 28 7 48 33 59 84 40 169 79 253 119 78 36 156 73 234 109 29 14 58 27 87 40 24 11 55 0 66-25 34-72 67-144 100-216 22-45 43-91 65-136 16-33 2-62-35-79-69-31-138-63-207-95-78-36-157-73-236-109-40-19-80-38-121-57-8-3-17-4-26-7l0 0z m214 336l0 0c3 2 9 4 11 7 15 31 30 62 45 93 31 65 63 131 95 197 3 6 5 12 8 19-6-2-12-4-18-7-52-24-104-48-156-72-67-31-134-63-202-94-38-17-76-35-114-52-1-1-3-3-3-4 0-2 2-4 4-4 11-3 22-5 32-8 24-6 47-11 70-17 25-7 50-13 75-20 26-7 53-13 79-20 24-6 48-11 74-18l0 0z m-58-44l0 0c-3-2-10-3-12-7-36-68-71-136-106-204-2-3-2-8-2-11 3 0 7 0 10 2 45 21 91 42 136 63 67 32 133 64 200 95 51 24 102 47 153 71 2 1 5 4 5 6 0 2-4 4-6 5-7 1-15 1-23 2-44 10-88 20-132 30-16 4-32 8-48 13-29 8-32 7-46-20-3-6-6-11-9-17-20-35-37-43-76-37-14 2-28 6-44 9l0 0z m-291 76l0 0c-1-2-6-7-5-9 15-32 30-64 45-96 24-51 47-102 71-152 2-3 5-6 7-8 3 2 6 5 8 8 14 29 28 59 42 88 16 34 33 68 49 102 1 3 0 11-2 11-19 6-39 11-59 16-26 7-51 13-77 19-25 7-50 13-79 21l0 0z m680 0l0 0c-1-1 4 0 4 1 0 4 0 9-2 13-21 45-43 91-64 136-17 35-32 71-48 106-2 3-5 4-7 6-2-2-4-4-6-6-8-18-16-36-25-54-22-46-45-93-68-140-1-2 1-9 3-9 22-6 44-11 66-17 26-6 52-13 77-20 22-5 45-10 70-16l0 0z m-52-358c-64 0-128 0-192 0-20 0-35 12-35 29 0 16 14 28 34 28 129 1 258 1 387 1 21 0 32-10 32-28 0-21-10-31-33-31-64 0-129 0-193 0 0 0 0 0 0 1l0 0z m102 177c31 0 61 0 92 0 20 0 32-12 32-31 0-18-13-30-32-30-60 0-120 0-180 0-20 0-33 14-33 33 0 16 12 26 32 26 30 0 59 0 89 0 0 1 0 1 0 2l0 0z" horiz-adv-x="1000" />

<glyph glyph-name="zoom-in" unicode="&#xe855;" d="M0 386q0 80 31 152t84 126 125 84 153 31 152-31 126-84 84-126 31-152q0-123-69-223l191-191q21-21 21-51t-21-50-51-21q-30 0-50 21l-191 191q-100-69-223-69-80 0-153 31t-125 83-84 126-31 153z m143 0q0-103 73-177t177-73 176 73 74 177-74 176-176 74-177-74-73-176z m71-18v36q0 7 6 12t12 5h125v125q0 8 5 13t13 5h36q7 0 12-5t6-13v-125h125q7 0 12-5t5-12v-36q0-7-5-13t-12-5h-125v-125q0-7-6-13t-12-5h-36q-7 0-13 5t-5 13v125h-125q-7 0-12 5t-6 13z" horiz-adv-x="928.6" />

<glyph glyph-name="mail" unicode="&#xe856;" d="M834 688q44 0 74-30t30-74l0-468q0-43-30-74t-74-30l-730 0q-44 0-74 30t-30 74l0 468q0 44 30 74t74 30l730 0z m-421-454l-82 72-190-190 655 0-190 190-81-72q-24-20-56-20t-56 20z m-309-82l187 189-187 163 0-352z m542 189l188-188 0 351z m188 243l-730 0 0-11 342-300q9-7 23-7t22 7l343 300 0 11z" horiz-adv-x="938" />

<glyph glyph-name="right-circle" unicode="&#xe857;" d="M1000 349q0-136-67-251t-182-182-251-67-251 67-182 182-67 251 67 251 182 182 251 67 251-67 182-182 67-251z m-547-232l233 232-233 232-71-71 161-161-161-161z" horiz-adv-x="1000" />

<glyph glyph-name="sitemap" unicode="&#xe858;" d="M0-25v179q0 22 16 38t38 15h53v107q0 29 21 51t51 21h285v107h-53q-23 0-38 15t-16 38v179q0 22 16 38t38 16h178q23 0 38-16t16-38v-179q0-22-16-38t-38-15h-53v-107h285q29 0 51-21t21-51v-107h53q23 0 38-15t16-38v-179q0-22-16-38t-38-16h-178q-22 0-38 16t-16 38v179q0 22 16 38t38 15h53v107h-285v-107h53q23 0 38-15t16-38v-179q0-22-16-38t-38-16h-178q-23 0-38 16t-16 38v179q0 22 16 38t38 15h53v107h-285v-107h53q22 0 38-15t16-38v-179q0-22-16-38t-38-16h-178q-23 0-38 16t-16 38z" horiz-adv-x="1000" />

<glyph glyph-name="temperatire" unicode="&#xe859;" d="M286 190q34-8 57-36t22-64q0-42-31-73t-74-32-73 31-31 74q0 37 23 64t56 36l0 290q0 10 8 18t17 9 18-9 8-18l0-290z m157 84q78-79 78-184 0-107-77-184t-184-77-184 77-76 184q0 107 78 184l0 415q0 75 53 129t129 54 129-54 54-129l0-415z m-183-340q65 0 111 46t45 110q0 88-77 134l0 465q0 31-23 54t-56 24-55-24-22-54l0-465q-79-46-79-134 0-65 45-110t111-46z" horiz-adv-x="521" />

<glyph glyph-name="theatre" unicode="&#xe85a;" d="M50 800c-24 0-50-25-50-50l0-350c0-111 50-250 250-250 18 0 34 1 50 3l0 147-200 0s25 100 150 100c25 0 35-4 50-9l0 109c0 46 18 84 50 100 50 25 70 15 100 0 50-25 50-25 50-25l0 175c0 25-26 50-50 50-50 0-100-50-200-50-100 0-150 50-200 50z m88-175c34 0 62-28 62-62 0-35-28-63-62-63-35 0-63 28-63 63 0 34 28 62 63 62z m262-75c-24 0-50-25-50-50l0-350c0-111 50-250 250-250 200 0 250 139 250 250l0 350c0 25-26 50-50 50-50 0-100-50-200-50-100 0-150 50-200 50z m88-175c34 0 62-28 62-62 0-35-28-63-62-63-35 0-63 28-63 63 0 34 28 62 63 62z m225 0c34 0 62-28 62-62 0-35-28-63-62-63-35 0-63 28-63 63 0 34 28 62 63 62z m-263-275l300 0s-25-100-150-100-150 100-150 100z" horiz-adv-x="850" />

<glyph glyph-name="fast-food" unicode="&#xe85b;" d="M350 675c-150 0-300-75-300-200l0-100 850 0 0 100c0 125-150 200-300 200z m25-50c14 0 25-11 25-25 0-14-11-25-25-25-14 0-25 11-25 25 0 14 11 25 25 25z m200 0c14 0 25-11 25-25 0-14-11-25-25-25-14 0-25 11-25 25 0 14 11 25 25 25z m-300-100c14 0 25-11 25-25 0-14-11-25-25-25-14 0-25 11-25 25 0 14 11 25 25 25z m200 0c14 0 25-11 25-25 0-14-11-25-25-25-14 0-25 11-25 25 0 14 11 25 25 25z m200 0c14 0 25-11 25-25 0-14-11-25-25-25-14 0-25 11-25 25 0 14 11 25 25 25z m-625-200c-25 0-50-25-50-50 0-25 25-50 50-50l850 0c25 0 50 25 50 50 0 25-25 50-50 50z m0-150l0-50c0-50 50-100 100-100l650 0c50 0 100 50 100 100l0 50z" horiz-adv-x="950" />

<glyph glyph-name="leaf" unicode="&#xe85c;" d="M0 60q0 20 17 41t38 37 38 31 18 27q0 2-8 21t-9 25q-5 28-5 58 0 64 24 123t66 103 96 77 113 53q31 10 81 15t100 5 100 3 91 13 64 32l16 16t17 16 15 11 20 9 24 3q22 0 40-26t26-63 14-69 4-53q0-53-11-108-26-125-103-214t-200-149q-119-61-244-61-83 0-160 27-8 2-49 23t-53 21q-9 0-22-18t-25-39-30-39-33-18q-17 0-29 6t-17 13-15 24q-1 2-3 6t-3 6-2 5-1 7z m214 183q0-15 11-25t25-11q13 0 25 11 15 13 41 39t38 37q76 69 150 98t175 29q14 0 25 11t10 25-10 25-25 11q-96 0-178-28t-145-75-131-122q-11-12-11-25z" horiz-adv-x="1000" />

<glyph glyph-name="list" unicode="&#xe85d;" d="M100 200q20 0 35-15t15-35-15-35-35-15l-50 0q-20 0-35 15t-15 35 14 35 36 15l50 0z m0 200q20 0 35-15t15-35-15-35-35-15l-50 0q-20 0-35 15t-15 35 14 35 36 15l50 0z m0 200q20 0 35-15t15-35-15-35-35-15l-50 0q-20 0-35 15t-15 35 14 35 36 15l50 0z m200-100q-20 0-35 15t-15 35 15 35 35 15l350 0q22 0 36-15t14-35-15-35-35-15l-350 0z m350-100q22 0 36-15t14-35-15-35-35-15l-350 0q-20 0-35 15t-15 35 15 35 35 15l350 0z m0-200q22 0 36-15t14-35-15-35-35-15l-350 0q-20 0-35 15t-15 35 15 35 35 15l350 0z" horiz-adv-x="700" />

<glyph glyph-name="publicacoes" unicode="&#xe85e;" d="M720 843l3-659-392 0c-38 0-80 5-116-6-23-7-41-20-53-39-9-17-13-35-11-53 2-29 18-61 44-77 17-10 35-15 54-18 35-5 71-3 105-3l435 0v726h49l1-774h-583c-63 0-135 33-153 97-6 25-6 52-8 80 0 177 5 656 5 656s-2 66 62 67c64 3 558 3 558 3l0 0z m-2-734l0-39-454-2c-23 0-28 10-28 21 0 10 5 22 28 22l454-2 0 0z m-441-16c0-71-2-138-2-209 0-27 9-21 30-5 46 37 36 38 82 4 20-15 25-18 25 8l3 205-138-3 0 0z" horiz-adv-x="1000" />

<glyph glyph-name="cog-alt" unicode="&#xe85f;" d="M0 299v103q0 6 4 11t9 6l86 14q7 19 18 42-19 27-50 64-4 6-4 11 0 7 4 12 12 16 46 49t44 33q6 0 12-4l64-50q19 10 43 18 6 60 13 86 3 13 16 13h104q6 0 11-4t6-10l13-85q19-6 41-17l66 49q5 4 11 4 7 0 12-4 81-75 81-90 0-5-4-10-7-9-24-30t-25-34q13-27 19-46l85-12q5-2 9-6t4-11v-103q0-6-4-11t-9-6l-86-14q-6-19-18-42 19-27 50-64 4-6 4-11 0-7-4-11-13-17-46-50t-44-33q-6 0-11 4l-64 50q-21-11-43-17-6-60-13-87-4-13-17-13h-104q-6 0-11 4t-5 10l-13 85q-19 6-42 18l-66-50q-4-4-11-4-6 0-12 4-80 75-80 90 0 5 4 10 5 8 23 30t26 34q-13 24-20 46l-85 13q-5 1-9 5t-4 11z m214 51q0-59 42-101t101-42 101 42 42 101-42 101-101 42-101-42-42-101z m429-325v78q0 9 83 18 7 16 17 29-29 63-29 77 0 2 3 4 2 1 19 11t33 19 17 9q4 0 25-26t29-38q12 1 17 1t17-1q28 40 51 63l4 1q2 0 69-39 2-2 2-4 0-14-28-77 9-13 16-29 83-9 83-18v-78q0-9-83-17-6-15-16-29 28-63 28-77 0-2-2-4-68-40-69-40-5 0-26 27t-29 37q-11-1-17-1t-17 1q-7-11-29-37t-25-27q-1 0-69 40-3 2-3 4 0 14 29 77-10 14-17 29-83 8-83 17z m0 572v78q0 9 83 17 7 16 17 29-29 63-29 77 0 2 3 4 2 1 19 11t33 19 17 9q4 0 25-26t29-38q12 2 17 2t17-2q28 40 51 63l4 1q2 0 69-39 2-2 2-4 0-14-28-77 9-13 16-29 83-8 83-17v-78q0-9-83-18-6-15-16-29 28-63 28-77 0-2-2-4-68-39-69-39-5 0-26 26t-29 38q-11-1-17-1t-17 1q-7-12-29-38t-25-26q-1 0-69 39-3 2-3 4 0 14 29 77-10 14-17 29-83 9-83 18z m143-533q0-29 21-50t50-21 51 21 21 50q0 29-22 51t-50 21-50-21-21-51z m0 572q0-30 21-51t50-21 51 21 21 51q0 29-22 50t-50 21-50-21-21-50z" horiz-adv-x="1071.4" />

<glyph glyph-name="lodging" unicode="&#xe860;" d="M100 675c-55 0-100-45-100-100 0-55 45-100 100-100s100 45 100 100c0 55-45 100-100 100z m150-100c0-83-67-150-150-150l-75 0c-13 0-25 0-25-25 0-7 0-31 0-50 0-25 19-25 25-25l825 0 0 100c0 50 0 150-250 150l-350 0z m-200-300c-25 0-50-25-50-50 0-49 0-107 0-150 0-25 25-50 50-50s50 25 50 50l0 100 650 0 0-100c0-25 25-50 50-50s50 25 50 50l0 150c0 25-25 50-50 50l-750 0z" horiz-adv-x="850" />

<glyph glyph-name="download-1" unicode="&#xe861;" d="M714 590q15-15 15-37t-15-36l-245-244-245 244q-15 15-15 36t15 37 36 15q23 0 38-15l118-120 0 349q0 21 16 37t37 16 37-16 15-37l0-349 119 120q14 14 38 14 22 0 36-14z m222-448l2-260q0-22-16-37t-37-16l-832 0q-22 0-37 16t-16 37q0 260 1 260 0 11 2 16l105 312q12 37 48 37l12 0q8-18 18-28l78-76-70 0-86-261 722 0-86 261-70 0 77 76q10 10 19 28l11 0q37 0 49-37l105-312q1-5 1-16z" horiz-adv-x="938" />

<glyph glyph-name="recycle" unicode="&#xe862;" d="M9 534l242-9 100-212-82 52q-35-41-62-81t-41-70-22-53-10-35l-2-11-106 199q-10 14-10 31t3 26l4 10q20 35 64 105z m142-453q-2 16 2 36t7 31 12 36 11 29q43-6 284-15l-9-206-1-12-234 16q-20 2-38 18t-26 36q-6 15-8 31z m13 539l126 199q11 17 33 25t45 5q13-1 27-6t23-12 23-18 21-20 20-22 17-19q-26-35-147-243l-177 104z m272 223l226 0q18 1 33-6t22-16l6-8q21-34 62-106l79 46-122-208-234 11 84 48q-19 50-42 93t-42 68-36 45-26 26z m96-740l118 202 3-97q95-9 158-3t95 19l31 12-104-200q-7-16-21-26t-24-12l-10-2q-40-4-122-7l4-91z m148 363l174 108 11 6 118-202q10-21 7-43t-15-41q-7-11-19-21t-21-15-27-12-26-9-29-8-25-7q-19 40-148 243z" horiz-adv-x="1000" />

<glyph glyph-name="mic" unicode="&#xe863;" d="M0 386v71q0 15 11 25t25 11 25-11 10-25v-71q0-103 74-177t176-73 177 73 73 177v71q0 15 11 25t25 11 25-11 11-25v-71q0-124-82-215t-204-104v-74h143q15 0 25-11t11-25-11-25-25-11h-357q-15 0-25 11t-11 25 11 25 25 11h143v74q-121 13-204 104t-82 215z m143 0v285q0 74 52 127t126 52 127-52 52-127v-285q0-74-52-126t-127-53-126 53-52 126z" horiz-adv-x="642.9" />

<glyph glyph-name="phone-outline" unicode="&#xe864;" d="M964 733q31-31 52-74t27-109-12-137-74-163-149-185q-237-237-454-237-134 0-215 82l-93 92q-46 46-46 111t46 110l83 83q46 46 110 46t110-46l72-71 218 216-73 72q-46 47-46 111t46 111l83 82q45 45 111 45 65 0 110-45z m-324-62q-15-15-15-37t15-37l56-56 157 156-57 56q-15 15-36 15-22 0-37-15z m-521-595l57-56 157 156-58 56q-15 15-36 15t-36-15l-84-82q-15-15-15-37t15-37z m615 62q81 82 130 159t64 133 11 105-17 78-32 47l-156-157 15-15q15-15 15-37t-15-36l-291-292q-15-15-37-15-22 0-37 15l-15 17-156-158q50-50 141-50 174 0 380 206z" horiz-adv-x="1044" />

<glyph glyph-name="angle-circled-left" unicode="&#xe865;" d="M0 350q0 117 58 215t155 156 216 58 215-58 156-156 57-215-57-215-156-156-215-58-216 58-155 156-58 215z m193 0q0-14 11-25l253-253q11-11 25-11t25 11l57 56q11 11 11 26t-11 25l-171 171 171 171q11 11 11 25t-11 25l-57 57q-10 11-25 11t-25-11l-253-253q-11-11-11-25z" horiz-adv-x="857.1" />

<glyph glyph-name="grupos_de_estudo" unicode="&#xe866;" d="M762 496c-32 34-67 67-100 100-34 34-54 34-88 0-97-97-217-220-315-313-36-38-47-77-46-149 0-18 0-38 0-56 0-20 3-25 25-26 36 0 69 0 105 0 37 1 69 13 95 39 108 108 216 216 324 325 28 29 28 50 0 80z m-444-241c75 75 151 151 226 226 13 13 25 5 36-6 10-10 20-18 5-33-77-76-152-153-229-228 0 0-2-2-2-2-8-8-18-9-28-1-6 6-11 10-16 16-10 8 3 21 8 28z m44-143c-26-6-83-8-90 0-8 9-8 56 0 82 3 9 13 10 18 5 25-24 49-47 76-72 5-5 3-13-4-15z m284 271c-79-77-156-156-233-233-1-2-1-2-3-3-7-5-17-5-21 1-9 9-12 10-18 18-12 14 3 23 8 30 74 75 149 149 223 223 13 13 23 8 36-3 15-13 19-22 8-33z m64 64c-2-2-3-4-8-10-20-21-28-13-41-2-23 22-45 46-68 68-13 13-4 19 9 34 14 15 19 20 46-8 19-20 32-30 52-51 3-3 7-7 10-10 6-5 5-15 0-21z m282-110c0 138-56 262-146 352l0 0 0 0c-92 92-216 148-354 148s-262-56-353-146l0 0 0 0c-90-90-146-215-146-352 0-138 56-261 145-353l1-2c91-90 215-146 354-146 138 0 263 56 355 146l0 0c86 91 144 215 144 353z m-176-318l0 0c-83-82-198-131-324-131-126 0-241 50-325 133l-1 1c-82 82-133 194-133 318 0 125 51 238 134 318l0 0c84 82 199 131 325 131s241-50 324-131l0 0c84-82 135-193 135-318s-53-239-135-321l0 0z" horiz-adv-x="1000" />

<glyph glyph-name="menu" unicode="&#xe867;" d="M650 400q22 0 36-15t14-35-15-35-35-15l-600 0q-20 0-35 15t-15 35 14 35 36 15l600 0z m-600 100q-20 0-35 15t-15 35 14 35 36 15l600 0q22 0 36-15t14-35-15-35-35-15l-600 0z m600-300q22 0 36-15t14-35-15-35-35-15l-600 0q-20 0-35 15t-15 35 14 35 36 15l600 0z" horiz-adv-x="700" />

<glyph glyph-name="cab" unicode="&#xe868;" d="M0 82v214q0 52 37 89t88 36h16l58 234q13 53 58 88t100 36h393q55 0 100-36t58-88l59-234h15q52 0 89-36t36-89v-214q0-8-5-13t-13-5h-71v-71q0-45-31-76t-76-31-76 31-31 76v71h-518v-71q0-45-32-76t-75-31-76 31-32 76v71h-53q-8 0-13 5t-5 13z m89 161q0-37 27-63t63-26 63 26 26 63-26 63-63 26-63-26-27-63z m199 178h531l-49 200q-2 4-8 9t-12 6h-393q-5 0-12-6t-7-9z m533-178q0-37 27-63t63-26 63 26 26 63-26 63-63 26-63-26-27-63z" horiz-adv-x="1107.1" />

<glyph glyph-name="cogs" unicode="&#xe869;" d="M0 245l0 97 94 8q8 30 23 55l-60 74 68 69 74-61q26 16 55 23l8 94 97 0 10-94q29-7 55-23l74 61 68-69-60-74q16-25 23-55l94-8 0-97-94-10q-7-29-23-55l60-72-68-70-74 60q-26-15-55-23l-10-94-97 0-8 94q-29 8-55 23l-74-60-68 70 60 72q-15 26-23 55z m221 49q0-37 26-64t64-26 63 26 26 64-26 63-63 26-64-26-26-63z m318 238l8 72 70-2q8 22 20 39l-37 57 54 45 49-49q20 10 41 14l14 66 72-8-2-68q22-8 39-22l57 39 45-54-49-49q10-20 12-43l68-14-8-70-68 0q-8-20-22-37l39-59-56-45-47 49q-22-8-43-12l-14-66-70 6 0 70q-20 8-37 20l-59-37-45 54 49 49q-8 20-12 41z m31-446l6 51 49 0q6 16 14 28l-26 43 37 33 36-37q13 7 29 9l10 49 48-6 0-48q16-6 28-16l41 27 31-41-35-35q6-14 10-29l47-12-6-51-49 0q-4-15-14-27l28-43-40-33-35 37q-13-8-29-10l-10-49-49 6 0 51q-13 4-27 14l-41-28-31 41 35 35q-6 14-8 30z m118 14q-4-21 8-36t32-18 34 10 17 33-10 36-31 18l-6 0q-17 0-31-13t-13-30z m17 451q-4-27 14-49t45-24 48 15 23 45-14 47-44 25l-7 0q-26 0-44-17t-21-42z" horiz-adv-x="1000" />

<glyph glyph-name="universo" unicode="&#xe86a;" d="M427-13c-16 0-29 13-29 29s13 29 29 29h316l-330 329c-11 12-11 30 0 41 12 11 30 11 41 0l329-330v317c0 15 13 28 29 28 16 0 29-13 29-28v-385-1c0-16-13-29-29-29h-385l0 0z m-51-75c17 0 31-14 31-31 0-17-14-31-31-31-17 0-31 14-31 31 0 17 14 31 31 31l0 0z m569 571c17 0 31-14 31-31 0-17-14-31-31-31-17 0-31 14-31 31 0 17 14 31 31 31l0 0z m-133 221c29 0 53-24 53-53 0-29-24-53-53-53s-53 24-53 53c0 29 24 53 53 53l0 0z m-639-635c29 0 53-24 53-53s-24-53-53-53-52 24-52 53 23 53 52 53l0 0z m331 757c36 0 65-29 65-64s-29-65-65-65-65 29-65 65 29 64 65 64l0 0z m-439-437c36 0 65-29 65-65s-29-64-65-64c-36 0-65 29-65 64s29 65 65 65l0 0z m133 328c48 0 87-39 87-86s-39-87-87-87-87 39-87 87 39 86 87 86l0 0z" horiz-adv-x="1000" />

<glyph glyph-name="tv" unicode="&#xe86b;" d="M814 579c-65 1-129 0-193 1-30 0-59-5-86 16l134 207-11 7-133-206c-14 7-31 9-45 2l-142 201-10-7 141-201c-32-26-67-19-102-19-62-1-124 0-187-1-63-1-108-44-108-107-1-159-1-318 0-477 0-62 44-104 106-104 108 0 215 0 322 0 106 0 211 0 316 0 69 0 110 41 110 109 1 156 1 312 1 467 0 69-43 112-113 112l0 0z m-191-643l0 0c-1 0-2 0-3 0-1 0-3 0-5 0-12 0-22 10-22 22 0 13 10 23 22 23 0 0 0 0 0 0 2 0 4 1 6 1 2 0 4-1 6-1 11-2 19-11 19-22 0-13-10-23-23-23l0 0z m70 0l0 0c-12 0-22 10-22 22 0 13 10 23 22 23 13 0 23-10 23-23 0-12-10-22-23-22l0 0z m79 0l0 0c-13 0-23 10-23 22 0 13 10 23 23 23s22-10 22-23c0-12-10-22-22-22l0 0z m82 179l0 0c0-56-26-83-82-83-91-1-182 0-274 0-91 0-182-1-273 0-53 0-79 26-79 79-1 105-1 211 0 316 0 54 27 81 81 81 181 1 363 1 544 0 56 0 83-28 83-83 1-103 1-207 0-310l0 0z" horiz-adv-x="1000" />

<glyph glyph-name="angle-circled-down" unicode="&#xe86c;" d="M0 350q0 117 58 215t155 156 216 58 215-58 156-156 57-215-57-215-156-156-215-58-216 58-155 156-58 215z m140 54q0-15 10-26l253-253q11-10 26-10t25 10l253 253q11 11 11 26t-11 25l-57 57q-10 10-25 10t-25-10l-171-172-172 172q-10 10-25 10t-25-10l-57-57q-10-11-10-25z" horiz-adv-x="857.1" />

<glyph glyph-name="data-science" unicode="&#xe86d;" d="M0 350q0 95 37 182t100 149 149 100 183 37q95 0 182-37t149-100 100-149 37-182q0-95-37-182t-100-150-149-100-182-37q-96 0-183 37t-149 100-100 150-37 182z m88 0q0-49 14-99 35 95 103 164-1 2-2 6t-1 5h-6q-49 0-102-14-6-32-6-62z m20 122q47 9 88 9 2 0 6 0t5 0q10 20 29 32t43 12q28 0 50-18 90 46 194 48 5 11 11 19-73 96-188 136-84-29-147-91t-91-147z m27-304q42-77 115-129t161-65q85 49 137 128-19 23-19 52 0 34 25 58-35 64-89 112t-121 74q-25-33-65-33-19 0-37 10-85-89-107-207z m223 291q1-1 1-4t0-5q80-30 143-86t103-130h1q11 48 11 93 0 55-18 117h-2q-26 0-47 16t-29 40q-87-3-163-41z m79 270q83-47 142-126 9 2 18 2 31 0 54-21t25-51q91-30 162-91-32 125-134 207t-235 82q-5 0-10 0t-12-1-10-1z m66-758q48 4 99 23 0 3 1 11t1 14q0 22-4 56-1 0-4 0-38-58-93-104z m148 493q21-70 21-137 0-55-14-110 32-24 32-63 0-41-37-67 6-34 6-66 87 50 139 138t52 191v1q-76 92-186 129-7-10-13-16z" horiz-adv-x="937.5" />

<glyph glyph-name="vimeo" unicode="&#xe86e;" d="M0 578q55 65 110 116t96 78 72 43 48 21l17 4q12 2 24 2 19 0 35-6 26-10 43-34t29-55 21-72 15-78 14-79 14-71q32-125 52-177t41-53q24 0 67 56t93 151q26 48 26 91 0 13-2 23-9 52-51 65-11 4-24 4-35 0-83-26 22 130 134 209 85 60 174 60 12 0 24-1 102-8 139-90 18-38 18-88 0-29-6-61-18-102-69-208t-113-187-133-155-123-118-91-68q-42-24-78-24t-70 21-56 48-38 57q-18 38-97 299t-97 280q-1 2-4 4t-13 5-24 0-37-14-50-33z" horiz-adv-x="1146" />

<glyph glyph-name="map" unicode="&#xe86f;" d="M984 600q16-10 16-30l0-584q0-20-16-30-8-6-16-6t-18 6l-216 136-216-136q-18-10-34 0l-218 136-216-136q-16-10-34 0-16 10-16 30l0 584q0 20 16 30l234 146q18 10 34 0l216-136 218 136q16 10 32 0z m-750-450l0 506-168-104 0-506z m234-104l0 506-168 104 0-506z m234 104l0 506-170-104 0-506z m232-104l0 506-168 104 0-506z" horiz-adv-x="1000" />

<glyph glyph-name="lupa" unicode="&#xe870;" d="M834 55c10-11 10-28 0-39-11-11-29-11-40 0l-231 231c-43-34-97-55-156-55-69 0-131 28-177 73-45 46-73 108-73 177 0 69 28 132 73 177 46 45 108 73 177 73s132-28 177-73c45-45 73-108 73-177 0-59-20-113-54-156l231-231 0 0z m-291 248l2 2c35 35 57 84 57 137 0 54-22 103-57 138-36 35-84 57-138 57s-102-22-137-57-57-84-57-138c0-53 22-102 57-137 35-35 83-57 137-57 53 0 101 21 136 55l0 0z" horiz-adv-x="1000" />

<glyph glyph-name="music" unicode="&#xe871;" d="M1-16q-8 57 38 103t118 57q64 10 119-17l25 652 690 53q-32-727-34-756-1-51-45-91t-109-50q-72-10-129 22t-64 89 37 105 117 58q68 9 125-22l25 465-539-55-5-131q-6-131-12-277t-8-176l0-6q-6-50-49-89t-107-47q-70-10-127 23t-66 90z" horiz-adv-x="991" />

<glyph glyph-name="mobile-1" unicode="&#xe872;" d="M0-56l0 812q0 39 27 67t67 27l500 0q39 0 66-27t28-67l0-812q0-39-28-67t-66-27l-500 0q-39 0-67 27t-27 67z m63 0q0-14 8-23t23-9l500 0q13 0 22 9t9 23l0 62-562 0 0-62z m0 94l562 0 0 624-562 0 0-624z m0 656l562 0 0 62q0 14-9 23t-22 8l-500 0q-14 0-23-8t-8-23l0-62z m218 47q0 15 16 15l94 0q15 0 15-15t-15-16l-94 0q-16 0-16 16z m32-782q0 16 15 16l31 0q16 0 16-16t-16-15l-31 0q-15 0-15 15z" horiz-adv-x="687" />

<glyph glyph-name="calendar-2" unicode="&#xe873;" d="M0-66l0 738q0 35 24 60t60 24l135 0 0 63q0 13 9 22t22 9 22-9 9-22l0-63 188 0 0 63q0 13 9 22t22 9 22-9 9-22l0-63 188 0 0 63q0 13 9 22t22 9 22-9 9-22l0-63 135 0q35 0 60-24t24-60l0-738q0-35-24-60t-60-24l-832 0q-35 0-60 24t-24 60z m63 0q0-10 5-16t16-6l832 0q10 0 16 6t5 16l0 738q0 10-5 16t-16 6l-135 0 0-63q0-13-9-22t-22-9-22 9-9 22l0 63-188 0 0-63q0-13-9-22t-22-9-22 9-9 22l0 63-188 0 0-63q0-13-9-22t-22-9-22 9-9 22l0 63-135 0q-10 0-16-6t-5-16l0-738z m156 135l0 94 125 0 0-94-125 0z m0 156l0 94 125 0 0-94-125 0z m0 156l0 94 125 0 0-94-125 0z m219-312l0 94 125 0 0-94-125 0z m0 156l0 94 125 0 0-94-125 0z m0 156l0 94 125 0 0-94-125 0z m218-312l0 94 125 0 0-94-125 0z m0 156l0 94 125 0 0-94-125 0z m0 156l0 94 125 0 0-94-125 0z" horiz-adv-x="1000" />

<glyph glyph-name="group" unicode="&#xe874;" d="M0 106l0 134q0 26 18 32l171 80q-66 39-68 131 0 56 35 103 37 41 90 43 31 0 63-19-49-125 23-237-12-11-25-19l-114-55q-48-23-52-84l0-143-114 0q-25 0-27 34z m193-59l0 168q0 27 22 37l152 70 57 28q-37 23-60 66t-22 94q0 76 46 130t110 54 109-54 45-130q0-106-78-158l61-30 146-70q24-10 24-37l0-168q-2-37-37-41l-541 0q-14 2-24 14t-10 27z m473 330q68 106 22 231 31 19 66 21 49 0 90-43 35-41 35-103 0-82-65-131l168-80q18-10 18-32l0-134q0-32-27-34l-118 0 0 143q0 57-50 84l-110 53q-15 8-29 25z" horiz-adv-x="1000" />

<glyph glyph-name="ok-circle" unicode="&#xe875;" d="M500 850q136 0 251-67t182-182 67-251-67-251-182-182-251-67-251 67-182 182-67 251 67 251 182 182 251 67z m-240-447l-54-53q71-71 129-133t81-90l22-26q8 13 22 36t57 85 83 119 95 119 99 104q-18 35-36 35-10-6-32-22t-113-97-211-201z" horiz-adv-x="1000" />

<glyph glyph-name="graduation-cap" unicode="&#xe876;" d="M0 564q0 13 12 18l625 196q3 1 6 1t5-1l625-196q13-5 13-18t-13-17l-625-196q-2-1-5-1t-6 1l-364 115q-24-19-39-63t-19-99q35-20 35-61 0-39-32-60l32-241q1-8-4-14-5-7-14-7h-107q-8 0-13 7-6 6-5 14l33 241q-33 21-33 60 0 41 36 62 7 115 55 184l-186 58q-12 4-12 17z m286-357l10 176 320-101q12-3 27-3t27 3l320 101 10-176q2-38-46-71t-131-52-180-20-180 20-131 52-46 71z" horiz-adv-x="1285.7" />

<glyph glyph-name="lock-open" unicode="&#xe877;" d="M0 46v322q0 22 16 38t38 15h375v108q0 103 73 176t177 74 176-74 74-176v-143q0-15-11-25t-25-11h-36q-14 0-25 11t-11 25v143q0 59-41 101t-101 41-101-41-42-101v-108h53q23 0 38-15t16-38v-322q0-22-16-37t-38-16h-535q-23 0-38 16t-16 37z" horiz-adv-x="928.6" />

<glyph glyph-name="chat" unicode="&#xe878;" d="M0 421q0 78 53 144t143 104 197 38 197-38 143-104 53-144-53-143-143-104-197-38q-48 0-98 9-70-50-155-72-21-5-48-9h-2q-6 0-12 5t-6 11q-1 2-1 4t1 4 1 3l1 3t2 3 2 3 3 2 2 3q3 3 13 14t15 16 12 17 14 21 11 25q-69 40-108 98t-40 125z m344-354q32-3 49-3 90 0 172 25t148 72q69 52 107 119t37 141q0 43-13 85 72-39 114-99t42-128q0-67-40-126t-108-98q5-14 11-25t14-21 13-16 14-17 13-14q0 0 2-2t3-3 2-3 2-3l1-3t1-3 1-4-1-3q-2-8-7-13t-13-4q-27 4-48 9-85 23-155 72-50-9-98-9-151 0-263 74z" horiz-adv-x="1000" />

<glyph glyph-name="intercambio_mapa" unicode="&#xe879;" d="M414-64c0 7 0 14 7 14 22 21 36 43 65 57 14 14 14 29 0 43-7 7-7 7-7 14 0 7 0 7 0 15 0 14-8 14-15 14-7 0-7 0-7 7 0 7-7 14-7 21 0 8-7 15-14 15-7 0-22 0-29 0-7 0-7 0-7 7 0 14 0 21-7 36 0 7 0 14 0 21 0 7 7 14 7 21 7 15 0 22-7 29-7 7-7 14-7 21 0 8-7 8-7 8-8 0-22 0-29 0-7 0-14 0-14 7 0 7-7 14 0 28 7 7 0 22-7 22-8 7-15 14-29 14-14 0-29 7-36 14-7 7-7 7-14 0 0 0-7 0-7 0-14 15-29 22-29 43 0 7 0 14 0 22 0 7 0 7-7 7-14 0-28-7-36-22 0-7-7-7-14-7-7 0-14 0-14-7-7-7-14-7-22-7-7 0-14 7-28 0-7 0-14 7-14 14 0 7 0 14 0 22 0-8-15-8-22-8-7 0-14 0-14 8 0 7-7 7-7 7 0 0-7 0-15 0 8 7 8 14 0 21-7 0-14 7-14 14-14 15-7 22 7 29 7 0 7 7 7 7 0 22 8 36 29 50 14 7 21 14 36 7 7 0 7 0 7 7 0 22 7 43 14 65 0 14 0 28-14 28 0 0-7 0-7 7 0 8 0 15 7 15 0 0 7 0 7 0 0 0 7 0 7 0 0 0 0 7-7 7-7 0-7 0-7 7 0 7 0 7 7 7 7 0 21 7 29 7 0 0 7 0 7 0 7-14 14 0 14 7 0 0 0 0 0 0 7-7 7-7 7-14 7-14 22-21 36-14 21 14 43 21 57 36 7 0 7 7 0 7-7 14-14 21-21 35 0 0-8 8 0 8 0 0 7 0 7 0 7 0 14 0 21-8 7 0 14 0 22 8 0 7 7 7 14 7 14 0 21 7 28 14 8 7 15 7 22 7-7-14 0-14 7-21 7-7 7-15 0-22-7-14-7-21 0-35 7-15 14-22 29-15 7 0 14 0 21 7 7 8 21 8 29 8 7 0 14 0 7 7 0 0 0 0 0 7 7 0 14 0 14 7 7 7 7 0 14 0 7-7 15-7 22-7 14 0 21 7 28 21 22 57 86 93 143 93 64-7 114-50 136-107 7-36 0-71-7-114 0-7 0-7-7-15-8-14-8-14 7-14 7 0 21 0 28 0 7 0 15 0 22-7 21-14 35-29 57-43 14-7 21-14 36-21 7 0 14-7 14-15 14-21 14-42 0-71 0-7-7-14-14-14-22-22-43-50-65-72-7-7-7-7-14-14-14-7-21-14-14-29 0-35 0-64-15-92 0-8-7-8-7-15-7-7-7-14-7-21 0-7 0-7-7-14-7-8-14-15-21-29-8-7-8-14-8-21 0-8 0-8-7-8-7 0-7-7-14-7-7-14-21-14-36-7-14 7-28 0-43-7-7-7-14-14-28-14-7 0-7 0-7-7-15-15-29-22-43-36-7-7-7-14-7-22 0-7 0-14 0-21 0-14 0-29-15-43-7-7-14-14-21-28-7-8-14-15-14-29-7-7-15-14-22-21-14-8-21-22-28-36 21 14 21 7 14 7-7 0-7 14 0 21 7 8 0 15 0 15-7 7-14 14-29 21 0 0-7 7-7 7 0 7-7 15-14 7 0 0 0 0-7 0 0 0-7 8-7 8-7 7-7 14-22 7z m243 521c7 7 7 7 0 0 43 57 72 114 93 179 7 28 14 64 7 93-14 57-71 92-128 85-58-14-93-71-86-128 7-36 21-72 43-100 21-43 43-86 71-129z m-7 179c-36 0-57 28-57 64 0 36 28 64 64 64 36 0 64-28 64-64-7-36-35-64-71-64z" horiz-adv-x="964" />

<glyph glyph-name="intercambio_galeria" unicode="&#xe87a;" d="M979 257c0-128 0-264 0-393 0-7 0-14-15-14-243 0-485 0-721 0-7 0-14 0-14 14 0 36 0 65 0 100 0 7 0 7-8 7-35-7-71-7-114-14-7 0-14 0-14 7-7 86-14 165-29 243-7 72-14 143-28 222-7 71-15 142-29 221 0 29 0 71-7 107 0 7 0 7 7 7 93 15 193 22 286 36 78 7 157 21 236 29 71 7 135 14 207 21 7 0 7 0 7-7 7-57 14-114 21-172 0-7 7-7 15-7 64 0 128 0 192 0 8 0 15 0 15-14-7-136-7-264-7-393z m-43 0c0 122 0 236 0 357 0 7 0 15-15 15-214 0-428 0-650 0-7 0-14 0-14-15 0-235 0-471 0-707 0-7 0-14 14-14 215 0 436 0 650 0 8 0 15 0 15 14 0 114 0 229 0 350z m-707-150c0 29 0 64 0 93 0 7 0 7-8 7-21 0-35 0-50-7-7 0-14 7-14 7 0 22-7 50-7 72 0 35-7 71-7 107-7 28-14 64-14 93-8 35-8 64-15 100 0 28-7 57-7 92 0 8 0 8 7 8 7 0 15 0 22 0 43 7 78 14 114 14 43 7 79 7 114 14 50 7 100 14 150 22 29 0 57 7 79 7 21 0 36 7 57 7 7 0 7 0 7-7 0-22 7-43 7-72 0-7 0-7 7-7 15 0 29 0 43 0 7 0 7 0 7 7 0 50-7 93-7 129 0 14-7 14-14 14-14 0-36-7-50-7-36-7-71-7-107-14-36 0-79-7-122-15-35 0-71-7-100-7-42-7-85-14-128-14-50-7-100-14-143-21-7 0-7-8-7-8 7-57 14-114 21-171 7-50 15-93 15-143 7-50 14-93 14-143 7-43 7-85 14-135 7-43 14-86 14-129 0-7 8-14 15-7 28 7 50 7 78 7 7 0 7 7 7 14 8 36 8 65 8 93z m371-14c-93 0-179 0-271 0-8 0-15 0-15 14 0 150 0 307 0 457 0 7 0 7 7 7 179 0 358 0 543 0 7 0 7 0 7-7 0-150 0-307 0-457 0-7 0-7-14-7-78-7-164-7-257-7z" horiz-adv-x="979" />

<glyph glyph-name="libras" unicode="&#xe87b;" d="M589-53c-1 5-3 11-4 15h0c-1-5-2-10-4-15l-5-16h18l-5 16z m-137 7c0 7-4 10-13 10-3 0-6 0-7-1v-18h6c8 0 14 4 14 9z m50-13h7c9 0 14 5 14 11 0 8-5 11-13 12-4 0-7-1-8-1v-22z m-64-9h-7v-23c2 0 4 0 7 0 8 0 15 3 15 12 1 8-7 11-15 11z m-325 84v-102c0-27 25-49 56-49h662c31 0 56 22 56 49v102h-370-404z m256-119h-49v79h18v-64h31v-15z m29 0h-18v79h18v-79z m66 7c-6-5-16-7-31-7-9 0-16 0-20 1v77c5 1 15 2 23 2 11 0 18-1 23-5 6-3 10-8 10-15 0-7-5-14-13-17v0c8-3 15-9 15-19 2-8-2-14-7-17z m187 27c-13 4-22 11-22 23 0 13 12 23 30 23 9 0 16-1 20-3l-3-15c-3 2-9 4-17 4-7 0-11-4-11-7 0-5 5-8 15-12 13-5 20-12 20-23 0-14-10-25-32-25-8 0-18 3-22 5l4 15c5-2 12-5 20-5 8 0 12 3 12 9 0 4-4 7-14 11z m-78 45h24l24-79h-19l-6 20h-23l-5-20h-19l24 79z m-32-22c0-10-7-17-13-20v0c5-3 8-8 10-15 3-9 5-20 6-23h-18c-1 3-3 9-5 18-2 10-6 13-13 13h-5v-31h-18v79c6 1 14 2 24 2 12 0 20-2 25-6 4-4 7-10 7-17z m91 79c0 3 1 4 4 5 10 2 16 9 17 19 1 3 1 7 2 10 4 9 3 19-1 29-1 5-2 10-1 15 1 18 1 35 0 53-2 19-4 38-10 55-5 12-8 24-19 30-1 1-2 3-3 4-7 7-14 11-23 12-5 0-10 1-13 7-2 5-7 9-11 12-8 5-10 12-9 21 3 19 4 39 0 59-4 20-10 39-19 58-10 21-25 31-51 27-20-4-32-18-40-36-6-15-6-30-6-44 1-7-3-10-7-13-2 4 1 8 0 11-1 2-1 4-3 4-2 0-3-2-3-3-2-2-3-4-3-7-2-6-6-11-8-17-1 0-1 0-2 0 0 6 0 13 0 19 0 3-1 8-5 7-4 0-4-4-4-7 0-10-2-19-1-29 0-5-2-10-4-15-1-3-3-4-6-1-2 1-4 2-7 2-3 0-5 0-7-2-1-4 2-4 4-6 6-6 7-13 3-20-7-11-12-22-15-34-7-24-14-48-25-70-5-10-8-22-10-34 0-5 0-9-1-13-4-12-1-21 5-30 5-9 14-11 23-13 8-3 16-2 24 1 12 6 26 11 36 23 1-13 1-24-2-36-5-17-8-33-9-50 0-1 0-1 0-2h-328v-123c0-33 27-59 59-59h695c32 0 58 26 58 59v123h-274z m-204 216c-5 0-9-1-14-3-2-2-3 0-3 2 0 8-3 17 6 23 1 0 2 1 2 2 7 16 19 31 14 50-1 4 0 6 3 9 3 2 4 6 6 8 1 1 2 3 3 2 2-1 1-3 1-4-2-10-4-20-5-30 0-4 0-8 2-12 5-11 2-18-9-25-1 0-3 0-3-2 0-1 2-2 3-2 5 0 4-3 2-5-2-4-2-7 6-7-5-4-9-5-14-6z m468-338c0-29-25-54-57-54h-678c-32 0-57 24-57 54v113h413 379v-113z" horiz-adv-x="1000" />

<glyph glyph-name="wheelchair" unicode="&#xe87c;" d="M0 171q0 101 58 185t154 117l9-73q-68-30-109-92t-41-137q0-103 74-176t176-74q71 0 130 37t92 98 28 132l57-114q-33-100-117-162t-190-62q-87 0-161 43t-117 117-43 161z m232 574q-1 9 4 24 7 28 31 46t54 17q37 0 64-26t26-63q0-39-29-66t-67-23l20-161h236v-72h-227l9-71h254q22 0 32-20l127-254 111 56 32-64-143-71q-7-4-16-4-22 0-32 19l-133 266h-264q-13 0-23 10t-12 22z" horiz-adv-x="928.6" />

<glyph glyph-name="article-alt" unicode="&#xe87d;" d="M133 722l826 0 0-632c0-58-51-111-105-111l-718 0c-88 0-136 46-136 159l0 461 133 0 0 123z m0-584l0 394-65 0 0-394c0-58 13-85 31-85 21 0 34 27 34 85z m758-48l0 564-691 0 0-516c0-40-7-69-19-91l673 0c22 0 37 26 37 43z m-425 135l0-22-158 0 0 22 158 0z m0-71l0-22-158 0 0 22 158 0z m63 31l0 254 266 0 0-254-266 0z m-63 180l0-22-158 0 0 22 158 0z m0-71l0-22-158 0 0 22 158 0z m0 145l0-22-158 0 0 22 158 0z m-135 73l0 43 417 0 0-43-417 0z" horiz-adv-x="959" />

<glyph glyph-name="carona" unicode="&#xe87e;" d="M224 230c-48 15-104 72-123 127-15 48-12 111 44 130 9 39 28 87 75 88 16 42 38 85 89 88 85 175 199 67 292-63 30 64 87 127 161 131 42 2 90-17 112-54 5-8 18-37 8-46-19-18-42-32-65-47-119-75-110-127-85-248 20-93 38-175 88-257-6-2-12-3-17-4-33 41-55 89-83 133-57-87-192-15-259 21 72-22 214-80 245 22 13 45 2 107-6 158-19 104-6 131 107 208 20 14 36 24 37 30 7 49-196 103-257-184 3-52-28-90-87-84-25-46-54-62-105-61-16-22-27-41-86-40-4-28-34-40-56-44 53-119 205-156 300-68l8-8c-24-24-51-43-79-62 23-49 49-103 82-146 82-22 174 27 229 85-60-79-149-114-248-110l-99 164c-111 11-165 45-222 141l0 0z m90 404l0 0c-131-24-28-266 66-288 35-7 76 8 93 41-73 23-174 170-159 247l0 0z m-165-172l0 0c-68-38-13-128 9-154 22-26 49-46 72-51 23-5 44 6 52 28-59 15-142 112-133 177l0 0z m76 88l0 0c-36-3-47-36-50-69-7-74 60-162 131-177 23-4 39-2 56 19-77 21-143 151-137 227l0 0z m360-73l0 0-1 97c-37 52-168 248-242 86-11-52 30-149 83-205 21-23 72-63 103-37 64 53-15 158-60 196 5 3 10 6 15 10 53-26 92-90 102-147l0 0z m-526-162l0 0c14-86 61-105 138-120-71 29-105 41-138 120l0 0z m638 412l0 0c77 74 246-3 225-82-7-25-65-44-109-116 40 53 73 62 126 99 30 113-163 188-242 99l0 0z" horiz-adv-x="1000" />

<glyph glyph-name="attach" unicode="&#xe87f;" d="M1113 556q0-67-26-129t-74-110l-448-444-62 61 448 444q74 72 74 178 0 89-58 148t-148 58q-102 0-180-75l-493-489q-59-59-59-133 0-57 37-94t94-36q75 0 134 59l377 372q53 55 53 97 0 21-16 33t-38 12q-48 0-86-40l-340-336-61 61 339 336q66 66 148 66 58 0 100-37t42-94q0-78-79-159l-377-372q-84-84-196-84-93 0-155 61t-63 155q0 110 84 194l493 489q104 101 242 101 125 0 210-84t84-209z" horiz-adv-x="1113" />

<glyph glyph-name="github" unicode="&#xe880;" d="M0 3q0-63 62-108t150-45 151 45 62 108q0 64-62 109t-151 45q-1 0-3 0t-3-1q-24 22-24 48t24 53q71 4 120 55t49 121q0 28-7 50 28 5 44 14l0 115q-48-32-109-32l-7 0q-46 31-101 31-75 0-128-52t-53-126q0-47 24-87t64-64q-28-36-28-74 0-36 26-75-46-21-73-55t-27-75z m121 432q0 33 22 57t50 23q30 0 51-23t21-57-21-56-51-24q-29 0-50 24t-22 56z m3-432q0 27 26 46t62 18 63-18 26-46q0-26-26-45t-63-19-62 19-26 45z m331 766q0 34 24 58t57 23 58-23 24-58-24-58-58-24-57 24-24 58z m19-647l0 479 134 0 0-479-134 0z m181 377l55 0 0-285q4-30 20-51t34-32 38-16 30-7l20 0q27 0 48 8 23 8 30 16l7 9 2 99q-42-13-65-13-5 0-9 1-23 3-27 16l-4 13q0 3-1 4l0 238 91 0 0 102-91 0 0 93-123 0 0-93-55 0 0-102z" horiz-adv-x="939" />

<glyph glyph-name="firefox" unicode="&#xe881;" d="M504-137c-216 0-387 126-466 306-87 200-17 521 139 663l-6-156c8 9 68 12 78-1 32 62 136 109 220 110-32-26-106-124-99-174 40-13 103-13 136-15 10-6 8-40-12-68-27-37-97-49-97-49l8-106-77 38c-26-64 35-120 97-110 69 12 94 57 142 54 49-2 68-29 61-54-7-30-59-25-59-25-44-70-103-101-198-93 144-119 338-10 387 87 50 97 7 241-43 283 59-25 99-51 120-108 11 125-46 267-149 350 193-56 311-206 314-445 3-239-211-487-496-487z" horiz-adv-x="1000" />

<glyph glyph-name="vcard" unicode="&#xe882;" d="M900 750q42 0 71-29t29-71l0-600q0-40-29-70t-71-30l-800 0q-40 0-70 30t-30 70l0 600q0 42 30 71t70 29l800 0z m0-700l0 600-800 0 0-600 800 0z m-450 196l0-90-250 0 0 90 250 0z m0 150l0-90-250 0 0 90 250 0z m0 150l0-90-250 0 0 90 250 0z m346-320l4-70-250 0q0 70 6 70 84 22 84 66 0 16-27 56t-27 88q0 110 90 110t90-110q0-48-28-88t-28-56q0-20 21-36t43-22z" horiz-adv-x="1000" />

<glyph glyph-name="attention-alt" unicode="&#xe883;" d="M0 350q0 95 37 182t100 149 149 100 183 37q95 0 182-37t149-100 100-149 37-182q0-95-37-182t-100-150-149-100-182-37q-96 0-183 37t-149 100-100 150-37 182z m117 0q0-96 47-177t128-128 177-47q95 0 176 47t128 128 47 177q0 95-47 176t-128 128-176 47q-72 0-137-28t-112-75-75-112-28-136z m271 196q-4 36 19 63t58 31q35 3 62-19t31-58q1-9 0-17l-27-244q-2-24-21-39t-43-13q-21 2-36 16t-17 36z m11-411q0 31 22 52 20 20 52 20t51-20q22-21 22-52t-22-52q-20-22-52-22-30 0-51 22-22 21-22 52z" horiz-adv-x="937.5" />

<glyph glyph-name="mic-off" unicode="&#xe884;" d="M0 731q0-18 13-31l794-782q13-12 31-12t31 12q13 12 13 31t-13 30l-794 783q-12 12-31 12t-31-12q-13-13-13-31z m119-437v106q0 18 13 31t31 12q18 0 31-12t13-31v-106q0-89 64-152t155-63q59 0 107 28l64-63q-57-37-125-48v-43h137q18 0 31-12t13-31q0-18-13-30t-31-13h-362q-18 0-31 13t-13 30q0 18 13 31t31 12h137v42q-74 10-135 52t-95 107-35 140z m144 5v73l225-220q-31-13-62-13-68 0-115 47t-48 113z m0 359v15q0 66 48 113t115 47 115-47 47-113v-336z m381-376q0 2 0 6t1 6v106q0 18 12 31t31 12q19 0 32-12t13-31v-106q0-42-14-86z" horiz-adv-x="881.8" />

<glyph glyph-name="lattes" unicode="&#xe885;" d="M329-70c-50 124-100 246-151 372 28-7 53-13 78-18 96-21 193-27 289-4 50 11 97 30 137 63 54 44 72 104 52 170-6 17-13 33-19 50-3 9-9 28-6 31 2 2 13-6 16-8 46-44 86-90 107-151 24-69 19-135-10-201-35-78-92-136-162-181-92-61-195-95-303-117-9-2-18-3-28-6l0 0z m128 370c0-1 3-6 5-20-12 1-24 2-36 4-77 12-153 24-230 35-11 2-15 7-18 17-14 52-23 105-22 159 1 91 27 171 105 226 50 36 109 44 169 43 87-3 169-29 248-66 5-2 11-6 14-10 1-3-1-5-4-6-3-2-17-3-26-3-51 5-101 12-151 4-13-2-26-5-38-9-59-20-85-63-83-133 3-70 23-135 49-199 6-14 11-27 18-42l0 0z m133 83c-70-1-143 55-157 121-10 50 16 92 65 105 71 18 172-42 189-114 14-57-22-106-81-111-5 0-10-1-16-1l0 0z" horiz-adv-x="1000" />

<glyph glyph-name="inscricao" unicode="&#xe886;" d="M265-40c-85 4-155 38-202 112-21 33-34 68-37 107-7 76 18 139 68 193 15 16 30 30 45 45 7 7 12 7 19 0 46-47 92-93 138-140 41-41 82-81 123-121 21-21 41-42 62-63 5-5 8-10 1-16-28-27-53-56-86-78-40-27-84-36-131-39l0 0z m524 726c63 6 128-55 141-112 9-37 0-70-15-103-20-44-51-81-85-115-27-29-55-56-72-91-14-28-11-48 7-67 14-15 30-18 49-12 33 12 59 33 84 55 10 9 19 19 29 27 12 11 29 10 39-1 8-8 9-26-2-36-36-35-72-69-118-89-42-19-86-15-117 17-33 33-41 76-23 119 17 38 42 69 70 98 32 32 63 64 84 104 10 18 18 39 20 59 2 16-5 34-13 48-29 45-70 59-117 39-41-18-74-47-106-78-5-6-11-12-18-17-10-9-27-7-36 3-8 8-9 24 0 33 37 38 75 75 123 100 24 13 50 22 76 19l0 0z m-150-355c-1-72-30-129-80-177-5-5-10-11-16-16-12-12-12-12-25 1-42 41-83 83-125 125-6 6-7 11 0 17 5 5 9 10 13 14 9 9 19 14 33 13 23-3 42 6 57 23 11 11 22 23 34 33 19 18 24 39 22 64-1 6 2 13 5 17 8 9 17 17 26 26 5 5 8 5 12 0 16-25 30-51 36-80 3-20 5-40 8-60l0 0z m-224 244c26 0 66-13 105-34 1-1 2-1 4-2 17-13 17-14 2-26-3-3-6-7-9-10-9-10-18-15-34-10-14 5-30 0-41-9-21-18-42-38-62-59-15-17-16-38-11-61 1-3 0-9-3-11-7-9-16-17-23-26-5-5-9-5-15 0-42 42-84 84-126 127-13 12-13 14 0 26 16 15 31 31 48 44 43 34 92 50 165 51l0 0z m33-222c-19 0-28 12-35 24-6 10 0 20 8 27 12 12 23 24 35 36 12 12 24 12 38 0 15-15 18-30 6-43-12-13-25-26-39-38-4-4-10-5-13-6l0 0z" horiz-adv-x="1000" />

<glyph glyph-name="email" unicode="&#xe887;" d="M500 849c138 0 263-56 354-146l0 0 0 0c90-91 146-216 146-353 0-138-56-263-146-354l0 0c-91-90-216-146-354-146s-263 56-353 146-146 216-146 354 56 263 146 353l0 0c91 90 216 146 353 146l0 0z m191-371c11 11 28 11 39 0s11-29 0-39l-181-182 0 0c-13-13-31-20-49-20v0c-17 0-35 7-48 20l0 0-181 182c-11 10-11 28 0 39s28 11 39 0l181-181 0 0c3-3 6-4 9-4v0c4 0 7 1 9 4l0 0 182 181 0 0z m-495 103h0 609c16 0 28-13 28-28v-1-405c0-16-12-28-28-28h-1-608c-16 0-28 12-28 28v0 406c0 15 12 28 28 28l0 0z m581-56h-554v-351h554v351l0 0z m37 139c-80 80-191 130-314 130s-233-50-314-130v0c-80-81-130-192-130-314s50-234 130-314 192-130 314-130 234 49 314 130h0c81 80 130 191 130 314s-49 233-130 314l0 0 0 0z" horiz-adv-x="1000" />

<glyph glyph-name="keyboard" unicode="&#xe888;" d="M0 64v500q0 30 21 51t50 21h929q30 0 50-21t21-51v-500q0-29-21-50t-50-21h-929q-29 0-50 21t-21 50z m71 0h929v500h-929v-500z m72 81v53q0 9 9 9h53q9 0 9-9v-53q0-9-9-9h-53q-9 0-9 9z m0 143v53q0 9 9 9h125q9 0 9-9v-53q0-9-9-9h-125q-9 0-9 9z m0 142v54q0 9 9 9h53q9 0 9-9v-54q0-9-9-9h-53q-9 0-9 9z m143-285v53q0 9 9 9h482q9 0 9-9v-53q0-9-9-9h-482q-9 0-9 9z m0 285v54q0 9 9 9h53q9 0 9-9v-54q0-9-9-9h-53q-9 0-9 9z m71-142v53q0 9 9 9h54q9 0 9-9v-53q0-9-9-9h-54q-9 0-9 9z m72 142v54q0 9 9 9h53q9 0 9-9v-54q0-9-9-9h-53q-9 0-9 9z m71-142v53q0 9 9 9h54q8 0 8-9v-53q0-9-8-9h-54q-9 0-9 9z m71 142v54q0 9 9 9h54q9 0 9-9v-54q0-9-9-9h-54q-9 0-9 9z m72-142v53q0 9 9 9h53q9 0 9-9v-53q0-9-9-9h-53q-9 0-9 9z m71 142v54q0 9 9 9h54q9 0 9-9v-54q0-9-9-9h-54q-9 0-9 9z m72-142v53q0 9 9 9h62v134q0 9 9 9h54q9 0 9-9v-196q0-9-9-9h-125q-9 0-9 9z m71-143v53q0 9 9 9h54q9 0 9-9v-53q0-9-9-9h-54q-9 0-9 9z" horiz-adv-x="1071.4" />

<glyph glyph-name="tablet" unicode="&#xe889;" d="M0 82v607q0 37 26 63t63 27h465q36 0 63-27t26-63v-607q0-37-26-63t-63-26h-465q-36 0-63 26t-26 63z m71 72q0-8 6-13t12-5h465q7 0 12 5t5 13v535q0 8-5 13t-12 5h-465q-7 0-12-5t-6-13v-535z m215-90q0-14 10-25t25-10 26 10 10 25-10 25-26 11-25-11-10-25z" horiz-adv-x="642.9" />

<glyph glyph-name="angle-circled-right" unicode="&#xe88a;" d="M0 350q0 117 58 215t155 156 216 58 215-58 156-156 57-215-57-215-156-156-215-58-216 58-155 156-58 215z m282-196q0-15 11-26l57-56q11-11 25-11t25 11l253 253q11 11 11 25t-11 25l-253 253q-10 11-25 11t-25-11l-57-56q-11-11-11-26t11-25l171-171-171-171q-11-11-11-25z" horiz-adv-x="857.1" />

<glyph glyph-name="resize-full-circle" unicode="&#xe88b;" d="M1000 349q0-136-67-251t-182-182-251-67-251 67-182 182-67 251 67 251 182 182 251 67 251-67 182-182 67-251z m-356 82l116-102v280h-280l102-116-13-13-213-213-116 102v-280h280l-102 116z" horiz-adv-x="1000" />

<glyph glyph-name="revista" unicode="&#xe88c;" d="M475 588l0-515c0 0-27 18-70 34-57 23-115 32-175 35-66 3-120 0-120 0l0 515c0 0 52 0 105-2 65-2 138-5 198-30 23-6 44-19 62-37l0 0z m-473 19v-552l434 0c0 0-52 33-123 43-69 11-238 11-238 11l-1 498-72 0 0 0z m523-19l0-515c0 0 28 18 70 34 58 23 115 32 176 35 65 3 119 0 119 0l0 515c0 0-52 0-105-2-65-2-137-5-198-30-23-6-44-19-62-37l0 0z m473 19v-552l-434 0c0 0 52 33 123 43 69 11 238 11 238 11l1 498 72 0 0 0z" horiz-adv-x="1000" />

<glyph glyph-name="to-start" unicode="&#xe88d;" d="M0 33v634q0 24 17 42t42 17h117q24 0 41-17t17-42v-272l516 320q29 19 50 7t21-49v-646q0-37-21-49t-50 7l-516 319v-271q0-25-17-42t-41-17h-117q-24 0-41 17t-18 42z" horiz-adv-x="821.3" />

<glyph glyph-name="clipboard" unicode="&#xe88e;" d="M0-150l0 904 225 0 0-64-161 0 0-774 579 0 0 774-161 0 0 64 225 0 0-904-707 0z m129 129l0 31 31 0 0-31-31 0z m0 121l0 31 31 0 0-31-31 0z m0 121l0 31 31 0 0-31-31 0z m0 121l0 32 31 0 0-32-31 0z m0 121l0 32 31 0 0-32-31 0z m0 96l0 94 129 0 0 97q0 41 27 71t69 29 69-30 28-70q0-56-2-97l129 0 0-94-449 0z m96-582l0 33 353 0 0-33-353 0z m0 121l0 33 353 0 0-33-353 0z m0 121l0 33 353 0 0-33-353 0z m0 121l0 34 353 0 0-34-353 0z m0 121l0 34 353 0 0-34-353 0z m97 260q0-14 9-22t23-9 22 9 9 22-9 24-22 9-23-9-9-24z" horiz-adv-x="707" />

<glyph glyph-name="calendar-1" unicode="&#xe88f;" d="M0-102l0 775 92 0q0 29 1 39t4 32 11 30 25 16 40 8 41-8 24-16 11-30 4-32l0-39 55 0 0 39t4 32 12 30 24 16 40 8q18 0 31-4t22-8 14-17 9-19 4-24 1-25l0-28 54 0 0 28t2 25 4 24 8 19 15 17 21 8 31 4q24 0 41-8t24-16 11-30 4-32l0-39 92 0 0-775-776 0z m65 177l0-112 139 0 0 112-139 0z m0 22l139 0 0 119-139 0 0-119z m0 141l139 0 0 130-139 0 0-130z m0 151l139 0 0 112-139 0 0-112z m71 203q0-33 37-33t37 33l0 130q0 33-37 33t-37-33l0-130z m89-517l0-112 152 0 0 112-152 0z m0 22l152 0 0 119-152 0 0-119z m0 141l152 0 0 130-152 0 0-130z m0 151l152 0 0 112-152 0 0-112z m126 203q0-33 37-33 38 0 38 33l0 130q0 33-38 33-37 0-37-33l0-130z m47-517l0-112 152 0 0 112-152 0z m0 22l152 0 0 119-152 0 0-119z m0 141l152 0 0 130-152 0 0-130z m0 151l152 0 0 112-152 0 0-112z m168 203q0-33 38-33 37 0 37 33l0 130q0 33-37 33-38 0-38-33l0-130z m5-517l0-112 140 0 0 112-140 0z m0 22l140 0 0 119-140 0 0-119z m0 141l140 0 0 130-140 0 0-130z m0 151l140 0 0 112-140 0 0-112z" horiz-adv-x="776" />

<glyph glyph-name="play" unicode="&#xe890;" d="M0 11v677q0 39 22 52t53-8l564-349q20-14 20-33 0-9-5-18t-10-12l-5-4-564-349q-31-20-53-7t-22 51z" horiz-adv-x="658.7" />

<glyph glyph-name="twitter" unicode="&#xe891;" d="M0-37q30-3 60-3 176 0 314 108-82 1-147 50t-89 125q20-4 47-4 35 0 67 9-88 17-145 87t-58 160l0 3q53-30 115-31-52 34-82 90t-31 120q0 68 35 127 94-117 230-186t290-78q-7 33-7 58 0 104 74 178t179 74q109 0 184-80 87 18 160 62-28-91-110-140 73 9 144 40-48-75-125-131l0-33q0-101-29-202t-90-194-145-165-201-115-253-42q-209 0-387 113z" horiz-adv-x="1230" />

<glyph glyph-name="periodicos" unicode="&#xe892;" d="M403 275v-254h-159v652h143v-89c18 33 41 58 70 76 28 18 61 26 97 26 62 0 113-21 151-65s57-104 57-176c0-74-19-133-57-179-39-45-89-68-149-68-33 0-61 6-87 19s-46 31-66 58z m100 291c-31 0-55-11-72-32-18-23-26-53-26-92 0-38 8-67 26-90s41-33 71-33c29 0 54 11 72 34 18 23 26 54 26 94 0 36-8 65-26 87-18 21-43 32-71 32z m415-129c25 0 46-12 61-28 11-13 18-31 18-51 0-19-7-37-20-52-15-15-34-26-57-26-22 0-41 8-56 23-15 14-23 34-23 55 0 22 8 41 23 56 13 15 33 23 54 23z m-836 5c25 0 46-12 61-28 11-13 18-31 18-51 0-20-7-38-20-52-15-15-34-27-57-27-22 0-41 9-56 23-15 15-23 35-23 56 0 21 8 41 23 56 13 15 33 23 54 23z" horiz-adv-x="1000" />

<glyph glyph-name="key" unicode="&#xe893;" d="M633 685q-70 0-119-49t-50-117q0-14 4-32l11-57q-58-58-175-175t-174-173l0-66 111 0 0 111 112 0 0 112 111 0 0 47 80 79 57-11q18-3 31-3 70 0 119 49t48 118-48 118-118 49z m0 112q115 0 197-82t81-197-81-197-198-82q-28 0-51 5l-5-5 0-112-112 0 0-111-111 0 0-113-335 0 0 224 340 340q-5 23-5 52 0 115 82 196t198 82z m-57-278q0 55 56 55t56-55q0-57-56-57t-56 57z" horiz-adv-x="928" />

<glyph glyph-name="univates" unicode="&#xe894;" d="M889 305v-12c0-2-1-4-3-4h-70c-2 0-3 2-3 4v112c0 2 1 4 3 4h70c2 0 3-2 3-4v-11c0-2-1-3-3-3h0c-14 1-40 2-46 2h0v-37c11 0 31 1 42 1h0c2 1 4-1 4-3v-7-3-3 3c0-2-2-3-4-3l0 0c-11 1-31 1-42 1v-36h0c6 0 32 0 46 2h0c2 0 3-1 3-3l0 0z m-88 89v12c0 1-2 3-4 3h-85c-2 0-3-2-3-3v-12c0-2 1-3 2-3 9 1 19 2 30 2v-100c0-2 2-4 4-4h19c2 0 4 2 4 4v100h1c6 0 15-1 28-2 2 0 4 1 4 3l0 0z m-117-71l13-30 0-1 1 0c0-2 1-3 3-3h-2 21c2 0 5 1 3 6l-46 108 0 1 0 0v0c-1 3-4 5-7 5h-4c-2 0-3-1-4-2l-47-113c-2-4 1-5 3-5h6c2 0 3 1 4 3l0 0 13 31c14 1 29 1 43 0l0 0z m-8 19l0 0c-9 1-18 1-27 0l13 32 14-32 0 0z m-176 67h18c2 0 4-2 4-4 0-38 0-73 0-112 0-2-2-4-4-4h-18c-2 0-4 2-4 4 0 37 0 75 0 112 0 2 2 4 4 4z m-245-72v68c0 2 1 4 4 4h-1 1 9c8 0 14-6 14-13v-52c0-41 25-42 34-42 23 0 32 14 32 52v52c0 1 2 3 4 3h7c2 0 4-2 4-3v-58c0-42-15-58-52-58-15-1-56 1-56 47l0 0z m129 72c3 0 6-1 8-3l1-1 12-12 65-65v77c0 2 1 4 3 4h7c2 0 4-2 4-4v-112c0-2-2-4-4-4h-7c-2 0-4 1-6 3l-78 78v-77c0-2-2-4-3-4h-8c-2 0-3 2-3 4v112c0 2 2 4 3 4l6 0 0 0z m149 0h19c3 0 5-2 6-4l1-2 1-1 33-78 34 82 1 1 0 0c0 1 2 2 3 2h8c2 0 3-2 2-3l-47-112 0-1-1-1 0 0 0 0c-1-1-2-2-3-2h-7c-1 0-3 1-3 2l-1 0-48 113c0 2 0 4 2 4l0 0z m436-90c0-11-10-20-23-20-13 0-23 9-23 20v3c0 2-2 4-4 4h-2c-8 0-19-2-14-14 6-15 23-26 43-26 26 0 46 18 46 40 0 49-67 26-67 56 0 10 9 18 21 18 12 0 21-8 21-18v0-2c0-2 2-4 4-4h0c8 0 20 2 14 14-6 13-21 22-39 22-23 0-42-16-42-36 0-43 65-24 65-57l0 0z m-904 106c-3 0-4 1-4 3 0 2 1 3 2 4l58 23c2 1 5 1 8 1 2 0 4 0 6-1l59-23c1-1 2-2 2-4 0-2-1-3-4-3h0-127l0 0z m-26-128c0-3-2-4-3-4-2 0-3 1-4 2l-23 58c-1 3-1 5-1 8 0 2 0 4 1 6v0l23 59c1 1 2 2 4 2 1 0 3-1 3-3v-1l0-127 0 0z m0-23c-3 0-4-2-4-4 0-1 1-3 2-3l58-23c3-1 5-2 8-2 2 0 4 1 6 2l59 23c1 0 2 2 2 3 0 2-1 4-3 4h-1-127l0 0z m153 0c0-2 1-4 3-4 2 0 3 1 4 2l23 59c0 2 1 5 1 7 0 3-1 5-1 7l-23 59c-1 1-2 2-4 2-2 0-3-2-3-4v0-128l0 0z m-28 19c0-1 1-2 3-2 1 0 2 0 2 1l16 41c1 1 1 3 1 5 0 2 0 3-1 5h0l-16 40c-1 1-1 2-2 2-2 0-3-1-3-3v0-89l0 0z m-97 23c0-1-1-3-3-3-1 0-2 1-2 2l-16 41c-1 1-1 3-1 5 0 1 0 3 1 4l16 41v0c0 1 1 2 2 2 1 0 2-2 2-3v0l1-89 0 0z m17 81c-2 0-3 1-3 3 0 1 1 2 2 2l40 16c2 1 4 1 5 1 2 0 4 0 5-1v0l41-16c1 0 2-1 2-2 0-2-2-3-3-3h0-89l0 0z m-26-96c-2 0-3-1-3-2 0-1 1-2 2-3l40-16c2 0 4-1 5-1 2 0 4 1 5 1l41 16c1 1 2 1 2 3 0 1-2 2-3 2l0 0h-89l0 0z" horiz-adv-x="1000" />

<glyph glyph-name="revista_digital" unicode="&#xe895;" d="M966 404c0-103 0-205 0-308 0-53-7-61-56-82-120-49-241-98-361-148-34-14-65-14-100 0-121 51-242 100-365 150-36 14-51 37-51 75 1 208 0 416 0 623 0 7 0 15 0 21 5 41 36 61 74 46 91-36 182-74 272-111 39-17 77-43 116-43 41 0 80 26 121 43 89 36 177 72 266 108 49 20 80 0 82-56 2-88 0-179 0-267 2-16 2-33 2-51z m-515-152c0 87 0 172 0 259 0 41 0 41-39 57-25 10-48 20-73 30-67 26-134 54-201 80-26 10-30 6-31-21 0-10 0-20 0-32 0-139 0-278 0-416 0-33 0-64 0-97 0-16 6-26 23-32 96-38 191-79 288-119 28-11 33-8 33 23 2 89 0 179 0 268z m98 0c0-56 0-112 0-168 0-36 0-73 0-109 0-20 8-23 25-18 6 1 13 4 19 8 84 34 169 67 253 101 51 22 46 10 47 69 0 164 0 328 0 492 0 10 0 21 0 31-1 23-6 26-26 20-10-3-19-7-28-12-82-32-162-65-244-98-42-18-44-18-44-62-2-84-2-169-2-254z m-172 142c0-29-2-31-26-21-48 18-95 38-144 57-17 7-27 15-25 35 0 29 3 33 31 21 46-18 92-39 140-56 21-8 27-21 24-36z m0-213c0-38-2-39-26-29-49 19-98 39-148 59-19 8-29 36-19 54 1 5 13 8 18 5 54-22 106-43 159-66 10-3 14-20 16-23z m246 213c-3 15 3 27 21 35 51 19 102 41 151 62 17 7 21 0 21-15 4-29 0-36-26-46-46-19-93-37-139-55-26-13-28-12-28 19z m197-149c3-15-4-28-22-34-50-20-101-41-150-61-17-7-23-3-23 16-2 23 5 38 28 46 47 17 93 38 139 56 23 8 26 5 28-23z" horiz-adv-x="1000" />

<glyph glyph-name="oficinas" unicode="&#xe896;" d="M784 439c-9 26-31 27-53 31-36 5-74 8-110 11-14 2-21 8-28 22-18 36-31 72-47 106-8 18-20 33-44 33-23 0-36-13-45-33-14-33-32-66-45-100-9-20-20-28-40-29-34-2-69-7-103-10-23-2-41-10-51-35-8-24 5-39 20-54 28-26 55-51 85-77 11-10 16-18 11-33-8-31-14-64-19-95-5-24-17-52 10-72 28-20 50-3 75 10 34 18 69 52 103 51 36-2 71-35 105-54 13-7 25-18 41-17 31 0 49 22 43 58-7 37-15 77-23 114-3 15-3 27 10 37 28 22 54 49 82 73 19 20 32 36 23 63z m-154-100c-23-20-27-38-22-66 5-25 12-49 17-72 1-7 6-17 0-21-7-5-17 1-23 6-25 13-49 28-74 43-18 11-35 10-53 0-22-13-45-26-70-41-8-5-15-7-20-4-3 4-5 9-3 19 5 26 8 49 13 73 5 27 2 45-20 63-22 19-42 37-65 60-3 2-3 7-3 10 0 3 3 7 6 7 35 3 64 6 94 9 26 4 37 12 47 33 12 28 25 56 39 89 2 3 5 5 9 5 3 0 6-2 6-4 13-29 26-54 36-80 12-28 23-38 58-41 26-3 52-5 82-8 3 0 6-3 8-7 1-3 0-8-2-9-21-27-39-45-60-64z m370 11c0 138-56 262-146 353l0 0 0 0c-92 91-216 147-354 147s-262-56-352-146l0 0 0 0c-91-90-146-215-146-352 0-138 55-261 144-353l2-2c90-90 214-145 354-145 137 0 262 55 354 145l0 0c87 91 144 215 144 353z m-175-320l0 0c-84-82-199-131-325-131-126 0-241 51-325 133l-1 2c-82 82-133 193-133 318 0 124 51 237 134 318l0 0c84 82 199 131 325 131s241-51 325-131l0 0c83-82 134-194 134-318s-52-240-134-322l0 0z" horiz-adv-x="1000" />

<glyph glyph-name="search" unicode="&#xe897;" d="M0 386q0 80 31 152t84 126 125 84 153 31 152-31 126-84 84-126 31-152q0-123-69-223l191-191q21-21 21-51 0-29-22-50t-50-21q-30 0-50 21l-191 191q-100-69-223-69-80 0-153 31t-125 83-84 126-31 153z m143 0q0-103 73-177t177-73 176 73 74 177-74 176-176 74-177-74-73-176z" horiz-adv-x="928.6" />

<glyph glyph-name="chat-1" unicode="&#xe898;" d="M0 480q0 107 68 199t186 145 255 53q104 0 198-32t162-84 108-127 41-155q0-64-26-125t-73-110-109-85-140-57-161-20q-103 0-194 30l-116-81q-65-42-91-25t-11 97l23 121q-57 53-88 119t-32 136z m650-468q118 23 215 82t158 145 75 186q89-35 142-102t54-147q0-49-22-96t-62-83l17-86q10-55-8-67t-64 17l-82 57q-63-21-136-21-87 0-163 31t-124 84z" horiz-adv-x="1294.4" />

<glyph glyph-name="minus-circle" unicode="&#xe899;" d="M1000 349q0-136-67-251t-182-182-251-67-251 67-182 182-67 251 67 251 182 182 251 67 251-67 182-182 67-251z m-794-58h589v118h-589v-118z" horiz-adv-x="1000" />

<glyph glyph-name="angle-circled-up" unicode="&#xe89a;" d="M0 350q0 117 58 215t155 156 216 58 215-58 156-156 57-215-57-215-156-156-215-58-216 58-155 156-58 215z m140-54q0-14 10-25l57-57q11-10 25-10t25 10l172 172 171-172q11-10 25-10t25 10l57 57q11 11 11 25t-11 26l-253 253q-11 10-25 10t-26-10l-253-254q-10-10-10-25z" horiz-adv-x="857.1" />

<glyph glyph-name="cancel-circled-1" unicode="&#xe89b;" d="M0 350q0 117 58 215t155 156 216 58 215-58 156-156 57-215-57-215-156-156-215-58-216 58-155 156-58 215z m216-126q0-15 11-26l50-50q10-11 25-11 15 0 26 11l101 101 101-101q10-11 25-11 15 0 25 11l51 50q10 11 10 26 0 14-10 25l-101 101 101 101q10 11 10 25 0 15-10 26l-51 50q-10 11-25 11-15 0-25-11l-101-101-101 101q-11 11-26 11-15 0-25-11l-50-50q-11-11-11-26 0-14 11-25l101-101-101-101q-11-11-11-25z" horiz-adv-x="857.1" />

<glyph glyph-name="youtube" unicode="&#xe89c;" d="M0 123q0 54 6 162 4 53 38 87t87 36q100 5 301 5t301-5q53-3 87-36t38-87q5-90 5-162t-5-162q-4-53-38-87t-87-36q-100-5-301-5t-301 5q-53 3-87 36t-38 87q-6 108-6 162z m67 141l61 0 0-326 59 0 0 326 61 0 0 55-181 0 0-55z m65 603l60 0 38-152 4 0 36 152 60 0-46-148q-23-73-23-75l0-158-59 0 0 151q-2 14-5 26t-9 26-9 25z m116-885q0-48 36-48 32 0 61 35l0-31 52 0 0 281-52 0 0-214q-21-21-31-21-14 0-14 19l0 216-52 0 0-237z m79 575l0 146q0 34 22 53t56 18q33 0 54-20t20-53l0-145q0-36-20-56t-56-21q-35 0-55 22t-21 56z m54-7q0-23 22-23 23 0 23 25l0 153q0 9-7 15t-16 6-15-5-7-15l0-156z m67-612l53 0 0 21q20-25 50-25 47 0 47 62l0 156q0 71-51 71-25 0-46-27l0 123-53 0 0-381z m53 53l0 176q11 11 22 11 22 0 22-28l0-148q0-24-19-24-14 0-25 13z m23 539l0 237 52 0 0-215q0-19 14-19 13 0 31 21l0 213 52 0 0-281-52 0 0 31q-29-35-61-35-36 0-36 48z m114-513q0-38 19-63t57-24q78 0 78 87l0 21-54 0q0-2 1-13t-1-17-2-14-7-12-14-3q-23 0-23 40l0 53 100 0 0 72q0 38-18 60t-57 22q-36 0-57-23t-22-59l0-127z m54 99l0 30q0 31 23 31t23-31l0-30-46 0z" horiz-adv-x="863" />

<glyph glyph-name="resize-small" unicode="&#xe89d;" d="M704 33l-128-130 0 336 335 0-127-128 127-129-79-79z m-686 429l128 129-127 126 79 79 126-126 129 127 0-335-335 0z m0-480l128 129-128 128 335 0 0-336-129 130-127-130z m558 480l0 335 128-127 128 126 78-79-126-126 127-129-335 0z" horiz-adv-x="928" />

<glyph glyph-name="th-list" unicode="&#xe89e;" d="M0 62q0-30 21-51t51-21h32q30 0 51 21t21 51-21 51-51 21h-32q-30 0-51-21t-21-51z m0 288q0-30 21-51t51-21h32q30 0 51 21t21 51-21 51-51 21h-32q-30 0-51-21t-21-51z m0 288q0-30 21-51t51-21h32q30 0 51 21t21 51-21 51-51 21h-32q-30 0-51-21t-21-51z m234-576q0-30 21-51t51-21h559q30 0 51 21t21 51-21 51-51 21h-559q-30 0-51-21t-21-51z m0 288q0-30 21-51t51-21h559q30 0 51 21t21 51-21 51-51 21h-559q-30 0-51-21t-21-51z m0 288q0-30 21-51t51-21h559q30 0 51 21t21 51-21 51-51 21h-559q-30 0-51-21t-21-51z" horiz-adv-x="937.5" />

<glyph glyph-name="steering-wheel" unicode="&#xe89f;" d="M465 797q184 0 315-131t131-316-131-315-315-132-316 132-131 315 131 316 316 131z m0-112q-107 0-193-62t-122-161l629 0q-36 99-122 161t-192 62z m-1-390q24 0 41 16t16 40q0 24-17 40t-39 16-39-16-17-40 17-40 38-16z m-334 56q0-124 79-217t199-112q-2 137-83 233t-195 96z m391-329q120 20 199 112t79 217q-114 0-195-96t-83-233z" horiz-adv-x="928" />

<glyph glyph-name="book-1" unicode="&#xe8a0;" d="M682 594q18-8 18-28l0-562q0-14-12-25t-28-11q-46 0-46 36l0 522q0 12-12 18l-404 216q-32 10-68-10-44-20-56-44l408-228q18-8 18-28l0-550q0-22-18-28-6-4-16-4-14 0-20 4-8 6-202 127t-212 131q-26 18-26 34l-6 524q0 28 14 52 28 46 102 77t116 9z" horiz-adv-x="700" />

<glyph glyph-name="signal" unicode="&#xe8a1;" d="M490 150q42 0 71-30t29-70q0-42-29-71t-71-29q-40 0-69 29t-29 71q0 40 29 70t69 30z m-210 112q88 88 210 88t210-88l-70-72q-58 58-140 58t-140-58z m-140 140q146 148 351 148t349-148l-70-70q-116 118-279 118t-281-118z m-140 142q204 206 491 206t489-206l-70-70q-174 176-420 176t-420-176z" horiz-adv-x="980" />

<glyph glyph-name="facebook" unicode="&#xe8a2;" d="M0 313l0 191 154 0 0 96q0 104 68 177t163 73l153 0 0-191-153 0q-15 0-27-16t-12-41l0-98 192 0 0-191-192 0 0-463-192 0 0 463-154 0z" horiz-adv-x="538" />

<glyph glyph-name="calendar-empty" unicode="&#xe8a3;" d="M0-79v715q0 29 21 50t50 21h72v54q0 36 26 63t63 26h36q37 0 63-26t26-63v-54h214v54q0 36 27 63t63 26h35q37 0 63-26t27-63v-54h71q29 0 50-21t22-50v-715q0-29-22-50t-50-21h-786q-29 0-50 21t-21 50z m71 0h786v572h-786v-572z m143 679q0-8 5-13t13-5h36q8 0 13 5t5 13v161q0 8-5 13t-13 5h-36q-8 0-13-5t-5-13v-161z m429 0q0-8 5-13t13-5h35q8 0 13 5t5 13v161q0 8-5 13t-13 5h-35q-8 0-13-5t-5-13v-161z" horiz-adv-x="928.6" />

</font>
</defs>
</svg>
