<?xml version="1.0" standalone="no"?>
<!DOCTYPE svg PUBLIC "-//W3C//DTD SVG 1.1//EN" "http://www.w3.org/Graphics/SVG/1.1/DTD/svg11.dtd">
<svg xmlns="http://www.w3.org/2000/svg">
<metadata>Copyright (C) 2021 by original authors @ fontello.com</metadata>
<defs>
<font id="fontello" horiz-adv-x="1000" >
<font-face font-family="fontello" font-weight="400" font-stretch="normal" units-per-em="1000" ascent="850" descent="-150" />
<missing-glyph horiz-adv-x="1000" />
<glyph glyph-name="ead" unicode="&#xe800;" d="M356 531h266a19 19 0 0 1 0 37h-266a19 19 0 1 1 0-37z m0-86h158a19 19 0 1 1 0 38h-158a19 19 0 1 1 0-38z m255-190a49 49 0 0 1-17-4 47 47 0 0 1-40 22 49 49 0 0 1-17-3 47 47 0 0 1-41 22 48 48 0 0 1-10-1l0 29a47 47 0 0 1-48 48 50 50 0 0 1-48-49l-1-117-15-15h0a114 114 0 0 1-33-80 110 110 0 0 1 33-80l42-41a139 139 0 0 1 100-41 145 145 0 0 1 142 144l1 118a47 47 0 0 1-48 48z m9-167a106 106 0 0 0-104-104 101 101 0 0 0-73 29l-42 42a72 72 0 0 0-21 52h0a75 75 0 0 0 9 36l0-26a19 19 0 0 1 19-19 20 20 0 0 1 20 19l1 203a10 10 0 0 0 10 9 9 9 0 0 0 9-9l-1-125a19 19 0 0 1 19-19 20 20 0 0 1 20 19l0 48a10 10 0 0 0 3 7h0a10 10 0 0 0 7 3 9 9 0 0 0 9-9l0-29a19 19 0 0 1 19-19 20 20 0 0 1 20 19l0 10a10 10 0 0 0 3 7h0a10 10 0 0 0 6 2 9 9 0 0 0 10-9l0-19a19 19 0 0 1 19-19 20 20 0 0 1 20 19 10 10 0 0 0 2 7h0a10 10 0 0 0 7 3 9 9 0 0 0 10-9z m89 667h-418a94 94 0 0 1-94-94v-563a94 94 0 0 1 94-94h50a4 4 0 0 1 3 6 129 129 0 0 0-19 30 4 4 0 0 1-4 3h-30a56 56 0 0 0-56 55v563a56 56 0 0 0 56 55h418a56 56 0 0 0 56-55v-563a56 56 0 0 0-56-55h-21a4 4 0 0 1-3-3 168 168 0 0 0-10-31 4 4 0 0 1 4-5h30a94 94 0 0 1 94 94v563a94 94 0 0 1-94 94z" horiz-adv-x="1000" />

<glyph glyph-name="caixa_de_entrada" unicode="&#xe801;" d="M652 770c-4 0-11 2-18 2-90 0-181 0-272 0-37 0-46-22-46-56 0-148 0-296-1-444 0-38 16-57 53-56 86 0 171 1 256-1 40-1 54 18 54 55 0 150 1 300 1 450 0 20-3 39-27 50z m-53-38l0 0c-23-49-63-82-90-123-8-13-18-14-29 0-29 39-60 77-97 123 78 0 144 0 216 0z m-245-448l0 0c1 144 1 274 1 419 57-71 102-129 149-186 15-18 13-32 0-48-47-58-94-116-150-185z m30-31l0 0c35 46 65 86 96 125 12 15 22 9 33-5 28-36 57-72 95-119-80 0-147 0-224-1z m151 164l0 0c-11 15-3 26 7 37 23 25 23 52 1 77-18 20-13 35 4 54 31 36 58 75 94 121 0-146 1-281 1-434-41 57-74 101-107 145z m452-370c1-59-32-83-86-86-5 0-801 0-805 0-56 2-89 26-89 86 1 82-1 166 2 175 8 31 78 84 157 115 23 9 47 8 79 2 4-1 6-8 2-11-45-35-84-66-122-97-4-3-4-8-1-11 9-9 30-6 44-6 70 2 143 11 153-95 2-17 15-26 35-26 15 0 267 0 282 0 20 0 33 9 35 26 10 106 83 97 154 95 13 0 34-3 43 6 3 3 3 8 0 11-39 31-78 62-123 97-3 3-2 10 3 11 31 6 55 7 78-2 79-31 150-84 158-115 2-9 0-93 1-175z" horiz-adv-x="1000" />

<glyph glyph-name="unianalises" unicode="&#xe802;" d="M45 75l287-163c13-9 36-9 51 0l287 163c15 8 25 27 25 43v319l-82-37c-15-7-28-27-28-45v-200c0-2-2-5-3-7l-222-126c0 0-2 0-3 0-2 0-4 0-4 0l0 0-223 126c-2 0-3 5-3 5v310l-2 14c-5 13-13 25-25 30l-80 38v-427c-2-16 10-35 25-43z m913 553l-286 164c-15 8-37 8-52 0l-287-164c-15-8-25-26-25-43v-318l80 38c15 8 29 27 29 45v200c0 2 1 5 3 7l222 126c0 0 1 0 3 0 2 0 3 0 3 0l0 0 222-126c2 0 3-5 3-7v-308l2-14c5-13 13-25 25-30l80-38v423c3 19-8 37-22 45z" horiz-adv-x="1000" />

<glyph glyph-name="inovates" unicode="&#xe803;" d="M555 350l0 0c-5 0-12 2-15 3l-188 112c-4 2-9 7-10 12-4 5-5 10-5 15l0 218c0 10 6 22 15 27l160 91 0-58c0-8-7-18-14-23l-93-54c-2-3-5-6-5-8l0-170c0-2 3-7 5-7l147-86c1-2 6-2 8 0l95 55c7 3 20 3 27 0l50-30-162-92c-5-5-10-5-15-5z m-220-313l0 0 0 0c-5 0-8 1-12 3l-141 82c-7 3-12 13-12 20l2 163c0 8 5 17 11 20l144 80c3 2 6 3 11 3 5 0 9-1 12-3l142-82c6-3 11-13 11-20l-1-163c0-8-5-17-12-20l-143-80c-2-2-7-3-12-3z m2 320l0 0c-2-2-2-2-2-2l-112-63c-1 0-1-4-1-5l0-127c0-2 1-3 1-5l110-63c0 0 2 0 4 0l0 0c1 0 1 0 3 0l112 63c1 0 1 3 1 3l0 127c0 2-1 3-1 5l-110 63c-2 2-4 2-5 4l0 0z m160-504l0 0c-4 0-7 0-9 2l-81 47c-4 3-7 10-7 15l0 93c0 5 3 12 8 13l82 47c2 2 5 2 8 2 4 0 7 0 9-2l81-47c5-3 9-8 9-13l0-93c0-5-4-12-9-14l-81-45c-4-3-7-5-10-5z m0 37l0 0c0 0 1 0 0 0l63 35c0 0 0 0 0 0l0 72c0 0 0 0 0 0l-63 36c0 0 0 0 0 0l-64-35c0 0 0 0 0 0l0-71c0 0 0 0 0 0l64-37z m276 588l-50 30c-3 2-6 5-10 10-1 4-3 9-3 14l0 143c0 3-2 7-3 10-2 3-5 7-7 8l-125 74c-3 1-7 5-8 10-2 5-4 8-4 13v57l7-4c0 0 0 0 2 0l188-111c3-2 8-7 10-12 3-5 5-10 5-15l-2-227z" horiz-adv-x="1000" />

<glyph glyph-name="diploma" unicode="&#xe804;" d="M798 645c-2 12-7 21-11 29l-1 1c-1 0-1 1-1 1l4 6c5 7 5 18-2 25-24 27-59 41-95 40v0l-5 0c-37-3-71-22-92-52h0l-358-533c-23-22-38-53-38-88 0-66 55-121 121-121 34 0 65 15 87 37 2 1 3 3 5 5 0 1 0 1 0 1l2 2c5 6 9 13 12 19l181 270 10-81c0-5 3-10 8-14 4-3 8-4 13-4 1 0 1 0 2 0 5 0 10 3 14 7 3 5 5 10 5 15l-14 108 90-13c1 0 3 0 4 0 4 0 8 1 11 4 5 3 8 7 9 13 1 5 0 10-4 15-3 5-7 8-13 8 0 0-1 0-1 1l-86 12 124 185c20 26 26 59 19 102z m-52-78c-1 0-1-1-1-1l-111-166c-5 12-12 24-21 34l144 204c5-31 1-55-11-71z m-309-461c-14 51-61 89-117 89-3 0-8 0-11-1l3 5c2 1 4 2 6 4 14 13 28 19 44 17 15-1 30-10 42-25 1-1 3-3 5-4 1-1 2-3 3-4 4-3 10-4 15-3 6 0 11 3 14 8 0 0 0 0 1 1l146 206c10-14 14-31 12-49l-163-244z m-153-103c-12 11-19 27-17 44 0 1 0 2 0 3 9-23 31-39 56-39h0c16 0 31 6 42 18 12 11 18 25 18 41 0 32-27 59-60 59-2 0-4 0-6-1-29 2-57-11-74-33 1 4 3 8 4 12 3 2 5 3 6 6l15 22c14 12 32 19 52 19 44 0 79-36 79-80 0-13-3-25-9-36l-10-15c-14-17-36-28-60-28-13-1-25 3-36 8z m37 84l1 0 0 0c0 0 1 0 1 0 10 0 18-8 18-17 0-5-2-10-5-13-3-3-8-5-13-5h0c-10 0-18 8-18 18 0 9 7 16 16 17z m144 338c28 17 64 18 93 2l-136-191c-17 15-36 24-57 26-3 0-7 0-11 0l108 162c1 0 2 0 3 1z m117 35c-21 13-45 19-69 19-4 0-9 0-14 0l123 182 6 9c14 21 37 34 62 35 22 2 41-7 54-16l-162-229z" horiz-adv-x="1000" />

<glyph glyph-name="educacao-continuada" unicode="&#xe805;" d="M674 545a19 19 0 0 1-22 15l-65-12a19 19 0 1 1 7-38l21 4-88-137h-160a19 19 0 0 1-16-8l-51-73a19 19 0 1 1 31-22l46 65h160a19 19 0 0 1 16 9l94 146 5-22a19 19 0 0 1 37 9z m87 148h-522a87 87 0 0 1-87-87v-369a87 87 0 0 1 87-87h405l136-132a40 40 0 0 1 68 29v559a87 87 0 0 1-87 87z m49-646a2 2 0 0 0-4-2l-141 138a19 19 0 0 1-13 5h-413a49 49 0 0 0-49 49v369a49 49 0 0 0 49 49h522a49 49 0 0 0 49-49z" horiz-adv-x="1000" />

<glyph glyph-name="especializacao" unicode="&#xe806;" d="M746 518a29 29 0 0 0-12 29 102 102 0 0 1-120 120 29 29 0 0 0-29 12 102 102 0 0 1-170 0 29 29 0 0 0-29-12 102 102 0 0 1-120-120 29 29 0 0 0-12-29 102 102 0 0 1 0-170 29 29 0 0 0 12-29 102 102 0 0 1 103-121v-187a34 34 0 0 1 57-27l66 57a12 12 0 0 0 16 0l69-57a34 34 0 0 1 21-8 35 35 0 0 1 15 3 34 34 0 0 1 20 31v188a102 102 0 0 1 101 121 29 29 0 0 0 12 29 102 102 0 0 1 0 170z m-214-448a50 50 0 0 1-64 0l-61-52v177a29 29 0 0 0 5-4l1-1a28 28 0 0 0 2-3h0a102 102 0 0 1 85-45q3 0 6 0a102 102 0 0 1 79 45 28 28 0 0 0 2 3l1 1c1 1 1 1 2 2l1 1c1 0 2 1 2 1l1 1 1 0v-178z m193 310a67 67 0 0 1-28-68 64 64 0 0 0-64-77v0l-17 2 0 0h-1a67 67 0 0 1-17 0l-1 0-3-1-1 0-3-1-2-1-2 0-2-1-2-1-2-1-2-1-2-1-2-1-2-2-2-1-2-1-2-2-2-1-1-2-2-2-2-1c0-1-1-2-2-2l-1-2q-1-1-2-3l-1 0a64 64 0 0 0-106 0q-2 1-3 3l0 0a67 67 0 0 1-53 26c-1 0-2 0-3 0h-1l-1 0h-1l-16-1v-1a64 64 0 0 0-66 76 67 67 0 0 1-28 68 64 64 0 0 0 0 107 67 67 0 0 1 28 68 64 64 0 0 0 76 75 67 67 0 0 1 68 28 64 64 0 0 0 106 0 67 67 0 0 1 68-28 64 64 0 0 0 76-75 67 67 0 0 1 28-68 64 64 0 0 0 0-107z m-225 186a133 133 0 1 1 133-133 133 133 0 0 1-133 133z m0-227a95 95 0 1 0 95 94 95 95 0 0 0-95-95z" horiz-adv-x="1000" />

<glyph glyph-name="graduacao" unicode="&#xe807;" d="M854 490a38 38 0 0 1-19 13l-293 92a146 146 0 0 1-87 0l-293-91a38 38 0 0 1-1-73l97-31v-119a183 183 0 0 1 182-182h122a183 183 0 0 1 183 182v121l79 25v-188a19 19 0 0 1 38 0v236a19 19 0 0 1-8 15z m-147-101v-108a145 145 0 0 0-145-144h-122a145 145 0 0 0-144 144v107l158-51a146 146 0 0 1 89 0z m117 78l-293-94a108 108 0 0 0-66 0l-207 67v0l-85 27 0 0 293 91a108 108 0 0 0 64 0l294-91 0 0z" horiz-adv-x="1000" />

<glyph glyph-name="idiomas" unicode="&#xe808;" d="M703 592c0 2 0 4 0 6a141 141 0 0 1-272 52 348 348 0 1 1 272-58z m-244 13c0 0 0 1 0 1 0 2 1 4 1 7 0 0 0 0 0 0 1 2 1 5 1 7l1 2q0 2 1 5a103 103 0 0 0 202-29 57 57 0 0 0-1-11c0 0 0 0 0 0-3-16-11-34-21-54l-1-1c-1-2-2-4-3-6l-2-4-3-5-3-5-1-2-4-7-2-3-3-6-3-5-1-2-5-8 0-1c-6-9-11-17-16-26-8-12-15-24-22-35l0-1-1-1c-4-7-7-13-11-19-9 17-21 36-33 56l-9 14c-29 48-61 102-61 132 0 2 0 4 0 7z m-195-100l1 6a308 308 0 0 0 157 98c0-1 0-2 0-3s0-1 0-2c0-2 0-4 0-6 0-44 38-106 75-166 13-21 25-41 34-57a36 36 0 0 1 63 0c2 4 5 8 7 12l1 1 0 1c8 13 17 28 26 43 26 41 52 83 66 120a310 310 0 0 0 110-180 245 245 0 0 0-48 5 114 114 0 0 1-22 3c-21-1-31-10-36-18-12-20 0-45 7-60 1-3 2-6 2-7 2-5 3-9 5-13 4-13 9-26 2-62-2-12-15-31-39-47-31-20-65-28-94-21-20 5-29 18-45 42-14 22-32 50-69 73-33 19-66 9-91 1-10-3-20-7-26-7-8 1-20 7-23 15s3 18 9 25a158 158 0 0 0 23 17c27 18 67 45 47 86s-66 29-95 21c-17-5-38-11-44-5 0 0-6 4-6 28a485 485 0 0 0 3 57z m236-506a310 310 0 0 0-277 450c1-26 5-47 19-58 22-19 52-10 79-3 36 11 46 10 51 0 4-9-3-18-34-38a180 180 0 0 1-30-23c-26-28-22-53-17-65 10-24 37-38 58-38 12-1 25 4 38 8 22 7 42 13 60 2 29-17 43-39 57-61 16-24 32-50 68-58a135 135 0 0 1 30-3 170 170 0 0 1 93 29c31 20 52 47 56 72 9 47 2 67-4 82-2 4-3 7-4 10a83 83 0 0 1-4 12c-3 5-9 19-9 24a23 23 0 0 0 5 1c2 0 9-1 14-2a261 261 0 0 1 60-5q1-13 1-26a310 310 0 0 0-310-310z m62 542a58 58 0 1 1-58 58 58 58 0 0 1 58-58z m0 82a24 24 0 1 0-24-24 24 24 0 0 0 24 24z" horiz-adv-x="1000" />

<glyph glyph-name="pagelines" unicode="&#xe809;" d="M0-125q0 11 7 18t18 7q97 0 180 60t140 164q-20-8-40-13t-46-7-51 1-52 16-51 33-47 56-42 81q64 27 120 32t93-4 70-31 49-43 31-46q30 73 45 162-4 0-10-1t-26-2-39 1-46 5-49 13-47 24-42 36-30 53-16 71q39 16 74 20t63 0 52-17 41-28 31-34 23-35 16-31 8-22l3-9q6 68 6 109-4 3-12 8t-27 25-35 40-30 52-19 63 7 71 39 77q41-14 71-34t47-43 27-47 11-50 0-48-7-43-11-34-9-24l-4-8q0-3 0-28t0-40q2 4 5 10t17 24 29 33 39 31 51 24 63 9 74-14q-1-43-12-79t-28-58-39-40-45-25-48-14-44-5-38 1-26 2l-9 2q-13-82-41-158 3 4 10 10t28 23 43 29 55 24 66 11 72-13 76-43q-17-45-42-77t-51-50-55-26-57-8-54 5-48 12-39 15-25 13l-10 6q-63-128-161-201t-215-74q-10 0-18 7t-7 18z" horiz-adv-x="785.7" />

<glyph glyph-name="mestrados-doutorados" unicode="&#xe80a;" d="M791 507a132 132 0 0 1-38 96c-52 53-138 51-190-1l-26-25-269-270h0l-4-3-23-24h0l-11-11a29 29 0 0 1-8-18l-13-154a37 37 0 0 1 36-39 37 37 0 0 1 5 0l155 19a29 29 0 0 1 17 8l31 31 270 271h0l1 1 26 25h0l1 1a136 136 0 0 1 40 93z m-400-394l-144-17 12 142a20 20 0 0 0 5 12l4 3 134-134h0a20 20 0 0 0-11-6z m38 33l-135 134 268 268 134-135z m160 429l2 2a95 95 0 1 0 135-134l-3-3z" horiz-adv-x="1000" />

<glyph glyph-name="pin" unicode="&#xe80b;" d="M684 598a257 257 0 0 1-182 76c-69 0-133-26-185-76a261 261 0 0 1-63-270c51-147 170-250 236-298a30 30 0 0 1 13-4 13 13 0 0 1 9 2l2 2c27 18 162 119 230 293l1 5c33 96 10 200-61 270z m24-258c-43-125-137-213-192-256h0l-13-11-9 7c-55 43-154 133-199 261a222 222 0 0 0 52 227 217 217 0 0 0 154 66 214 214 0 0 0 154-66c63-61 83-146 53-228z m-208 147c-23 0-47-10-66-27a93 93 0 0 1-26-65c0-24 9-46 27-66a93 93 0 0 1 65-26c23 0 47 10 66 27a93 93 0 0 1 26 65c0 24-9 46-27 66a92 92 0 0 1-65 26z m35-127l-1 0a51 51 0 0 0-34-14 49 49 0 0 0-35 14l0 0a50 50 0 0 0-14 35 49 49 0 0 0 14 35l1 0a51 51 0 0 0 34 14 49 49 0 0 0 35-14l0-1a50 50 0 0 0 14-34 49 49 0 0 0-14-35z" horiz-adv-x="1000" />

<glyph glyph-name="reunioes" unicode="&#xe80c;" d="M369 242c0 10 2 20 0 29-5 33 8 43 41 41 28-1 33-6 31-34-3-31-5-66 3-97 9-29 22-34 45-15 26 23 55 37 91 37 28 0 56 0 82 0 31 1 56 13 66 45 11 40 0 73-30 92-11 7-14 56-3 67 12 12 25 0 35-4 55-27 82-89 68-158-11-64-55-105-118-110-27-1-55 0-82-1-39 0-70-15-82-56-4-18-14-18-29-16-59 8-113 67-116 127-2 18-2 36-2 53l0 0z m290 215c-2 18-2 36-3 54-10 75-53 119-128 124-62 5-125 7-185-1-81-10-118-63-115-153 2-72 49-123 123-129 29-2 59-2 90-2 30 0 51-13 66-38 23-39 34-42 75-19 61 36 80 93 77 164z m-75-51c-2-17-9-31-23-38-13-6-20 12-28 18-25 21-53 33-85 33-30 0-61-2-91 2-45 4-64 29-62 78 2 46 20 64 67 67 25 2 51 0 76 0 26 0 52 2 78 0 50-3 68-24 69-73 0-30 0-58-1-87z m416-66c0 138-56 263-146 353l0 0 0 0c-90 90-215 146-352 146s-263-56-353-146l0 0 0 0c-90-90-146-215-146-353 0-137 56-260 145-352l1-2c90-90 215-146 354-146 138 0 263 56 354 146l0 0c87 90 143 217 143 354z m-175-319l0 0c-84-83-199-132-325-132-126 0-241 51-325 133l-1 2c-82 82-133 193-133 318 0 124 51 238 134 318l0 0c84 82 199 131 325 131s241-51 325-131l0 0c83-82 134-194 134-318s-51-239-134-321l0 0z" horiz-adv-x="1000" />

<glyph glyph-name="presencial" unicode="&#xe80d;" d="M357 529h266a19 19 0 0 1 0 38h-266a19 19 0 0 1 0-38z m0-85h158a19 19 0 0 1 0 38h-158a19 19 0 0 1 0-38z m309-267a86 86 0 0 1 24 66 89 89 0 0 1-26 57l-3 2a89 89 0 0 1-56 27 86 86 0 0 1-67-24h0l-17-18-10-9h0l-176-176-6-6a41 41 0 0 1-12-26l-7-90a31 31 0 0 1 5-21 30 30 0 0 1 28-12l92 12a41 41 0 0 1 24 11l3 3 204 204z m-317-191l6 80 70-70z m106 33l-75 75 158 157 74-74z m184 185l-74 74a49 49 0 0 0 68-1l5-5a49 49 0 0 0 1-68z m68 549h-414a96 96 0 0 1-96-96v-558a96 96 0 0 1 80-95 4 4 0 0 1 4 4l3 30a4 4 0 0 1-3 4 58 58 0 0 0-46 57v558a58 58 0 0 0 58 58h414a58 58 0 0 0 58-58v-558a58 58 0 0 0-58-58h-134a4 4 0 0 1-3-1l-28-31a4 4 0 0 1 3-6h162a96 96 0 0 1 96 96v558a96 96 0 0 1-96 96z" horiz-adv-x="1000" />

<glyph glyph-name="icones-12" unicode="&#xe80e;" d="M895 283a365 365 0 0 1 49 1c56 6 101 58 101 115v81q0 103 0 207a130 130 0 0 1-2 23 117 117 0 0 1-114 96c-57 0-115 0-171 0h-313a137 137 0 0 1-24-2 118 118 0 0 1-74-45 99 99 0 0 1-22-56c-1-14-1-27-1-40 0-5 0-11 0-16 0-34 0-69 0-103q0-21 0-41v-8c0-7 0-13 0-20a8 8 0 0 0-10-8 73 73 0 0 1-12 1 61 61 0 0 1-47-22 315 315 0 0 1-43-58c-18-32-27-61-29-91a182 182 0 0 1 25-105c22-38 52-72 95-107 51-41 94-75 136-105 30-23 67-49 108-66a232 232 0 0 1 81-20 175 175 0 0 1 84 18 246 246 0 0 1 79 62 203 203 0 0 1 33 48 57 57 0 0 1-24 76l-12 6c-28 17-57 34-86 50a65 65 0 0 1-54 7c-12-4-21-12-30-26a131 131 0 0 0-22-25 55 55 0 0 0-39-15 86 86 0 0 0-50 19q-21 16-42 32l-20 16c-13 9-25 19-34 33-6 11-14 26-10 44a87 87 0 0 0 22 41 11 11 0 0 0 9 3h14q27 0 55 0h159a13 13 0 0 0 11-4c7-7 15-15 24-24 5-5 10-10 15-16 13-13 26-26 40-38 10-9 20-9 31 0 1 2 3 3 4 5l17 17c17 17 35 35 52 52a23 23 0 0 0 18 8c8 0 15 0 23 0z m-474-159l9-7c14-12 29-23 44-34l8-6a123 123 0 0 1 72-27c27 0 52 9 74 29a174 174 0 0 1 27 32c8 10 13 12 24 5 34-19 68-39 100-57 9-6 9-10 5-18a123 123 0 0 0-21-31c-14-17-34-38-59-54a122 122 0 0 0-61-18h-3c-37 0-67 12-91 24-41 20-77 47-104 68-12 9-24 19-36 28-23 17-47 36-70 55-29 24-62 53-87 92-18 28-26 55-26 83a157 157 0 0 0 22 72 307 307 0 0 0 35 50l0 1c7 8 12 12 18 13s10-4 17-11q32-32 64-64c2-2 4-5 6-7l4-4c9-9 9-16 1-26a191 191 0 0 1-22-29c-24-43-19-89 13-126a235 235 0 0 1 37-33z m413 191q-15-15-30-30-16-16-32-32a9 9 0 0 0-15 0q-13 13-26 26c-12 11-23 23-35 35a35 35 0 0 1-27 11q-58 0-117 0-48 0-96 0a11 11 0 0 0-13 10c-2 14-10 24-18 33-19 22-36 39-52 54a20 20 0 0 0-7 16q0 72 0 143 0 56 0 111c0 36 32 70 69 71 28 2 56 2 84 1 14 0 28 0 42 0 27 0 54 0 81 0h90q76 0 152 0c12 0 24 0 35 0l12 0a75 75 0 0 0 70-60 90 90 0 0 0 1-17v-67q0-110 0-219a75 75 0 0 0-60-75 113 113 0 0 0-24-1h-18c-14 0-28 0-42 0a31 31 0 0 1-24-10z m-356 170a21 21 0 0 1 8-23 25 25 0 0 1 16-5h368a23 23 0 0 1 17 8 22 22 0 0 1 4 18 21 21 0 0 1-22 16h-357l-14 0a21 21 0 0 1-20-14z m392 147h-371a21 21 0 0 1-19-30 19 19 0 0 1 18-11h373a20 20 0 0 1 5 0 21 21 0 0 1 15 22 21 21 0 0 1-21 19z" horiz-adv-x="1227" />

<glyph glyph-name="seta-abaixo" unicode="&#xe80f;" d="M365 408a19 19 0 0 0 33 14l102-102 102 102a19 19 0 1 0 27-28l-115-115a19 19 0 0 0-28 0l-115 115a19 19 0 0 0-6 14z" horiz-adv-x="1000" />

<glyph glyph-name="seta-direita-1" unicode="&#xe810;" d="M185 334a19 19 0 0 1 9-3h565l-83-83a19 19 0 1 1 28-27l115 115a19 19 0 0 1 0 28l-115 115a19 19 0 0 1-28-27l83-83h-564a19 19 0 0 1-10-36z" horiz-adv-x="1000" />

<glyph glyph-name="seta-direita-banners" unicode="&#xe811;" d="M829 2h-658a19 19 0 0 0-19 19v658a19 19 0 0 0 19 19h658a19 19 0 0 0 19-19v-658a19 19 0 0 0-19-19z m-639 38h620v620h-620z m249 168a19 19 0 0 0-14 32l110 110-110 110a19 19 0 0 0 27 26l123-123a19 19 0 0 0 0-27l-123-122a19 19 0 0 0-13-6z" horiz-adv-x="1000" />

<glyph glyph-name="video" unicode="&#xe812;" d="M0-29l0 758 1000 0 0-758-1000 0z m123 123l754 0 0 512-754 0 0-512z m266 82l0 340 293-170z" horiz-adv-x="1000" />

<glyph glyph-name="seta-esquerda-1" unicode="&#xe813;" d="M815 367a19 19 0 0 1-9 2h-565l83 83a19 19 0 0 1-28 27l-115-115a19 19 0 0 1 0-28l115-115a19 19 0 0 1 28 27l-83 83h565a19 19 0 0 1 9 36z" horiz-adv-x="1000" />

<glyph glyph-name="seta-esquerda-banners" unicode="&#xe814;" d="M829 698h-658a19 19 0 0 1-19-19v-658a19 19 0 0 1 19-19h658a19 19 0 0 1 19 19v658a19 19 0 0 1-19 19z m-19-658h-620v620h620z m-275 174a19 19 0 1 1 26 26l-109 110 109 110a19 19 0 0 1-27 26l-123-123a19 19 0 0 1 0-26z" horiz-adv-x="1000" />

<glyph glyph-name="logo" unicode="&#xe815;" d="M131 679c-9 0-16 6-16 15 0 6 3 11 8 13l246 97c9 4 19 6 30 6 10 0 20-2 29-5l246-97c5-3 9-8 9-14 0-8-7-15-15-15l-1 0-536 0z m-108-538c1-9-6-16-14-16-6 0-11 3-14 8l-96 246c-4 9-6 19-6 30 0 10 2 20 5 29l0 0 97 245c2 6 8 10 14 10 8 0 14-7 14-15l0-1 0-536z m-2-97c-8 0-16-6-16-15 0-6 4-11 9-13l245-97c10-4 20-6 31-6 10 0 20 2 28 5l246 98c6 2 10 7 10 13 0 8-7 15-16 15l0 0-537 0z m644 2c0-9 6-16 15-16 6 0 11 3 13 8l97 246c4 9 6 19 6 30 0 10-2 20-5 29l-98 246c-2 5-7 9-13 9-8 0-15-7-15-15l0-1 0-536z m-115 81c-1-6 4-11 10-11 4 0 7 3 9 6l67 171c3 6 5 14 5 21 0 7-1 14-4 20l0 0-68 171c-1 4-5 7-9 7-6 0-10-5-10-11l0 0 0-374z m-411 95c0-6-4-11-10-11-4 0-8 2-10 6l-67 171c-3 6-4 13-4 21 0 7 1 14 3 20l68 171 0 0c2 4 5 7 10 7 5 0 10-5 10-11l0-1 0-373z m73 342c-6 0-11 4-11 10 0 4 3 7 6 9l171 68c7 2 14 4 21 4 7 0 14-1 20-4l0 0 171-68c4-1 7-5 7-9 0-6-5-10-11-10l0 0-374 0z m-109-405c-7 1-11-4-11-10 0-4 2-7 6-9l170-68c7-2 14-4 21-4 7 0 14 1 20 4l171 68c4 1 7 5 7 9 0 6-5 11-11 11l0-1-373 0z" horiz-adv-x="707" />

<glyph glyph-name="duvida" unicode="&#xe816;" d="M834 372h-304a19 19 0 1 1 0-38h304a19 19 0 0 1 0 38z m0-109h-304a19 19 0 0 1 0-38h304a19 19 0 0 1 0 38z m144 152h0a99 99 0 0 1-99 99h-324c0 30 0 61 0 91 0 25-12 48-34 65a88 88 0 0 1-57 20h-352a90 90 0 0 1-90-90q0-105 0-211a90 90 0 0 1 75-87 145 145 0 0 1 22-1h38l34-34 23-23a22 22 0 0 1 16-8 22 22 0 0 1 15 8l12 12q23 22 45 45h32l51 0c0-23 0-45 0-68v-1q0-26 0-54a89 89 0 0 1 11-43c19-34 50-53 89-53 49 0 98 0 145 0h37l0 0q26-26 53-53l11-11a20 20 0 0 1 32 0l25 25 39 39 0 0h45a154 154 0 0 1 23 1 99 99 0 0 1 83 96q0 118 0 236z m-579 52h-246a19 19 0 0 1 0-39h233c0-2 0-5 0-7-1-27-1-54-1-81l-88 0a25 25 0 0 1-19-8q-13-13-26-27l-4-3-18-19-23 23q-13 13-27 27a23 23 0 0 1-16 7h-1c-17 0-35 0-50 0a65 65 0 0 0-9 0 51 51 0 0 0-44 51c0 66 0 134 0 208a51 51 0 0 0 53 53c41 0 82 0 125 0h225a56 56 0 0 0 18-3 49 49 0 0 0 35-46c0-29 0-59 0-89h-31a97 97 0 0 1-63-22 105 105 0 0 1-23-25z m541-286a59 59 0 0 0-52-60 75 75 0 0 0-10 0c-17 0-36 0-56 0a23 23 0 0 1-18-8q-14-14-28-28l-2-2-26-26-1 0-1 0-23 24-2 2q-15 15-30 30a26 26 0 0 1-19 8c-55 0-114 0-187 0a60 60 0 0 0-61 60q0 33 0 66v1c0 56 0 114 0 170a58 58 0 0 0 41 54 65 65 0 0 0 21 3h253c45 0 93 0 140 0 24 0 42-11 54-32a58 58 0 0 0 7-29c0-84 0-161 0-233z m-516 383h-271a19 19 0 1 1 0-39h271a19 19 0 0 1 0 39z" horiz-adv-x="1000" />

<glyph glyph-name="check" unicode="&#xe817;" d="M0-150l0 1000 646 0-164-164-318 0 0-672 672 0 0 319 164 164 0-647-1000 0z m234 623l133 131 129-129 361 363 133-132-361-364-133-133z" horiz-adv-x="1000" />

<glyph glyph-name="download" unicode="&#xe818;" d="M968 198q18-10 27-32t3-40l-28-154q-4-20-22-33t-40-13l-816 0q-22 0-40 13t-22 33l-28 154q-10 48 32 72l158 108 98 0-170-130 178 0q8 0 12-8l40-110 300 0 40 110q8 8 12 8l178 0-170 130 98 0z m-208 322l-260-244-260 244 166 0 0 256 190 0 0-256 164 0z" horiz-adv-x="1000" />

<glyph glyph-name="espaco-academico" unicode="&#xe819;" d="M565 209c-9-1-20-3-27 1-4 3-4 16-2 24 5 22 13 42 19 63 7 25 5 59-17 76a71 71 0 0 1-65 13c-23-6-43-16-59-33-2-3-7-8-2-13s9-4 14-2c4 1 9 2 13 4 18 6 27 0 26-19a50 50 0 0 0-2-12c-6-19-13-37-18-56-14-46 4-95 64-92 24-1 47 9 67 25 6 5 16 10 10 20-5 12-14 2-21 1z m-46 204c33 0 63 26 62 62 1 37-31 63-62 62a62 62 0 0 1 0-124z m381-63a394 394 0 0 1-116 280l0 1-1 0 0 0a401 401 0 0 1-564 2l-2-2a396 396 0 0 1-1-561l1-2a401 401 0 0 1 566 0l10 10 0 0a394 394 0 0 1 107 272z m-154-231l-4-5a347 347 0 0 0-484 0l-1 1a328 328 0 0 0 1 471 348 348 0 0 0 484 0 328 328 0 0 0 5-467z" horiz-adv-x="1000" />

<glyph glyph-name="periodicidade-aulas" unicode="&#xe81a;" d="M898 255c-34 71-90 112-168 122-4 1-5 3-5 6q0 108 0 216a59 59 0 0 1-1 14 60 60 0 0 1-60 47c-26 0-53 0-80 0-4 0-5 1-5 5 0 19 0 39 0 58a18 18 0 0 1-27 17 18 18 0 0 1-10-18c0-18 0-37 0-56 0-5-1-6-6-6q-133 0-266 0c-4 0-5 1-5 6 0 18 0 37 0 56 0 12-8 20-19 20s-18-8-18-20c0-19 0-38 0-57 0-4-1-5-5-5-27 0-54 0-81 0-23-1-41-12-52-33a65 65 0 0 1-7-31c0-38 0-76 0-114q0-63 0-125 0-116 0-232a79 79 0 0 1 1-13c5-31 30-51 62-51h375a7 7 0 0 0 7-4c48-72 115-105 201-98a198 198 0 0 1 126 60 206 206 0 0 1 62 155 194 194 0 0 1-19 81z m-777 278c0 23 0 46 0 68a22 22 0 0 0 21 21c28 1 55 0 83 0 3 0 3-1 3-4 0-14 0-28 0-42 0-11 8-20 18-20a19 19 0 0 1 19 20c0 14 0 27 0 41 0 4 1 6 6 6q133-1 266 0c4 0 5-1 5-5 0-14 0-28 0-42a18 18 0 0 1 11-18 18 18 0 0 1 26 17c0 14 0 29 0 43 0 4 1 5 5 5 27 0 54 0 81 0a23 23 0 0 0 23-24c0-22 0-44 0-67 0-4-1-6-5-6q-139 1-278 0h-277c-8 0-7-1-7 7z m380-320c-1-3-2-4-6-4q-38 0-77 0c-3 0-4 0-4 4a28 28 0 0 0 9 22 217 217 0 0 0 31 25c15 10 30 20 42 33 15 16 25 35 25 57a61 61 0 0 1-27 53c-32 23-80 19-107-9a52 52 0 0 1-14-47c3-14 13-17 26-15a19 19 0 0 1 17 20c0 18 15 29 34 27 23-2 33-27 22-47a104 104 0 0 0-28-31c-14-10-29-21-43-31a110 110 0 0 1-26-28 45 45 0 0 1-7-26c0-9 0-18 0-27 0-12 7-19 19-19h99c10 0 10 0 11-9a198 198 0 0 1 10-59c1-4 0-5-3-5q-180 0-359 0c-14 0-23 8-24 22a58 58 0 0 0-1 7q0 178 0 357c0 7-1 6 7 6h555c6 0 6 0 6-6q0-50 0-101c0-3 0-4-4-5a210 210 0 0 1-183-164z m206-218c-95-1-174 78-174 173a174 174 0 1 0 174-173z m-393 416c-6 8-20 10-28 4-12-10-26-20-39-30a19 19 0 0 1-8-20 16 16 0 0 1 9-13 13 13 0 0 1 16 5c2 2 4 5 6 7l1-1v-6q0-85 0-170a13 13 0 0 1 8-14 34 34 0 0 1 29 0 12 12 0 0 1 8 11q0 110 0 220a11 11 0 0 1-2 7z m493-306q-38 34-76 67a14 14 0 0 0-6 11c1 29 0 58 0 87 0 12-7 20-18 20s-19-8-19-20q0-25 0-50h0c0-17 0-33 0-50a22 22 0 0 1 8-18c13-10 24-20 36-31 17-14 33-29 50-44a19 19 0 0 1 24-1 18 18 0 0 1 1 29z" horiz-adv-x="1000" />

<glyph glyph-name="twitter" unicode="&#xe81b;" d="M0-37q30-3 60-3 176 0 314 108-82 1-147 50t-89 125q20-4 47-4 35 0 67 9-88 17-145 87t-58 160l0 3q53-30 115-31-52 34-82 90t-31 120q0 68 35 127 94-117 230-186t290-78q-7 33-7 58 0 104 74 178t179 74q109 0 184-80 87 18 160 62-28-91-110-140 73 9 144 40-48-75-125-131l0-33q0-101-29-202t-90-194-145-165-201-115-253-42q-209 0-387 113z" horiz-adv-x="1230" />

<glyph glyph-name="professor" unicode="&#xe81c;" d="M694 263a19 19 0 0 1-31 14l-141-130-7 17c-22 55-62 128-149 132l-81 0-2 0c-88-4-127-77-150-132l-52-129a19 19 0 0 1 10-24 18 18 0 0 1 7-1 19 19 0 0 1 18 11l52 129c28 71 60 104 102 107a808 808 0 0 0 108 0c43-4 74-37 103-107l17-42a19 19 0 0 1 30-7l160 149a18 18 0 0 1 6 13z m67 273h-195a19 19 0 0 1 0-37h195a19 19 0 1 1 0 37z m0-79h-195a19 19 0 0 1 0-37h195a19 19 0 1 1 0 37z m141 233h-789a19 19 0 0 1-18-18v-418a19 19 0 1 1 37 0v399h751v-546h-269a19 19 0 0 1 0-37h288a19 19 0 0 1 18 19v583a19 19 0 0 1-18 18z m-475-255a103 103 0 1 1-103-103 103 103 0 0 1 103 103z m-103 67a66 66 0 1 0-66-67 67 67 0 0 0 66 67z" horiz-adv-x="1000" />

<glyph glyph-name="form-erro" unicode="&#xe81d;" d="M500-150a500 500 0 1 0 500 500 501 501 0 0 0-500-500z m-10 271a69 69 0 0 1-66-68 67 67 0 0 1 134 0 69 69 0 0 1-68 68z m0 549a57 57 0 0 1-64-65c0-23 4-60 11-115 4-41 10-91 17-154l13-129a24 24 0 0 1 46 0l14 129c6 63 12 113 17 154 6 55 11 92 11 115a57 57 0 0 1-65 65z" horiz-adv-x="1000" />

<glyph glyph-name="agendar-consulta" unicode="&#xe81e;" d="M149 446a25 25 0 0 1 16-5h42a47 47 0 0 1 12 1q13 4 13 16t-12 16a54 54 0 0 1-8 1l-4 1h-43a31 31 0 0 1-16-6 14 14 0 0 1-7-12 17 17 0 0 1 7-12z m-2-75a14 14 0 0 1-4-11 18 18 0 0 1 6-11 20 20 0 0 1 14-5q18-1 37 0h4a24 24 0 0 1 9 0 23 23 0 0 1 12 5 17 17 0 0 1 7 11 14 14 0 0 1-5 11 21 21 0 0 1-12 7 456 456 0 0 1-55 0 21 21 0 0 1-13-7z m2 270a24 24 0 0 1 14-6h49a26 26 0 0 1 13 5 16 16 0 0 1 7 12 14 14 0 0 1-5 12 21 21 0 0 1-13 6 442 442 0 0 1-53 0 21 21 0 0 1-14-6 14 14 0 0 1-4-12 18 18 0 0 1 6-11z m11-102a358 358 0 0 1 40-2h11a6 6 0 0 1 2 1h2a23 23 0 0 1 13 7 14 14 0 0 1 4 11 19 19 0 0 1-6 11 16 16 0 0 1-12 5 429 429 0 0 1-53 0 19 19 0 0 1-13-5 17 17 0 0 1-6-11 14 14 0 0 1 5-11 21 21 0 0 1 13-6z m67-287a14 14 0 0 1 5 12 17 17 0 0 1-7 12 22 22 0 0 1-14 4 378 378 0 0 1-50 0 23 23 0 0 1-12-5 17 17 0 0 1-6-11 14 14 0 0 1 4-12 21 21 0 0 1 13-5 450 450 0 0 1 54 0 18 18 0 0 1 13 5z m598 72a234 234 0 0 1-88 88 241 241 0 0 1-332-85 242 242 0 0 1-2-246 244 244 0 0 1 88-89 234 234 0 0 1 123-34 239 239 0 0 1 123 33 249 249 0 0 1 87 89 234 234 0 0 1 34 122 238 238 0 0 1-33 122z m-39-222a199 199 0 0 0-72-72 191 191 0 0 0-99-26 200 200 0 0 0-101 26 196 196 0 0 0-73 72 199 199 0 0 0 0 200 203 203 0 0 0 73 74 191 191 0 0 0 99 26 194 194 0 0 0 100-26 201 201 0 0 0 100-175 191 191 0 0 0-27-99z m-365 285q83 87 211 82v262a13 13 0 0 1-2 9 13 13 0 0 1-9 2h-394a136 136 0 0 1-21-1 20 20 0 0 1-11-6 17 17 0 0 1-5-10 200 200 0 0 1 0-26v-15h8a65 65 0 0 0 14 0 34 34 0 0 0 23-7 30 30 0 0 0 10-19 28 28 0 0 0-4-21 32 32 0 0 0-19-12 86 86 0 0 0-10-2l-6-1h-16v-35q15 0 23-1a33 33 0 0 0 23-9 29 29 0 0 0 10-21 28 28 0 0 0-9-21 37 37 0 0 0-22-10h-8a51 51 0 0 1-12 0 21 21 0 0 1-4-3c-1-1-2-2-2-2v-28l8 0a157 157 0 0 0 23-3 26 26 0 0 0 17-8 28 28 0 0 0 8-17 29 29 0 0 0-3-19 29 29 0 0 0-15-12 91 91 0 0 0-19-4h-1a39 39 0 0 0-11 0h-7v-36h23a38 38 0 0 0 23-9 29 29 0 0 0 11-18 27 27 0 0 0-5-20 36 36 0 0 0-19-14 53 53 0 0 0-15-1 39 39 0 0 0-12 0h-5v-37h23a36 36 0 0 0 22-8 30 30 0 0 0 10-19 26 26 0 0 0-4-20 36 36 0 0 0-19-12 89 89 0 0 0-11-2l-6-1h-16v-10q0-19 1-29a20 20 0 0 1 6-14 23 23 0 0 1 16-5h138q-12 126 71 213z m288-95a24 24 0 0 1-17-8l-110-110-7 6-54 54a27 27 0 0 1-18 9 20 20 0 0 1-16-7 21 21 0 0 1-6-16 26 26 0 0 1 9-17l77-77a21 21 0 0 1 14-7 20 20 0 0 1 15 7l128 128a22 22 0 0 1 7 17 22 22 0 0 1-22 21z" horiz-adv-x="1000" />

<glyph glyph-name="picture" unicode="&#xe81f;" d="M0 11v678q0 37 26 63t63 27h893q37 0 63-27t26-63v-678q0-37-26-63t-63-27h-893q-36 0-63 27t-26 63z m71 0q0-8 6-13t12-5h893q7 0 13 5t5 13v678q0 8-5 13t-13 5h-893q-7 0-12-5t-6-13v-678z m72 53v107l178 179 90-89 285 285 233-232v-250h-786z m0 465q0 44 31 75t76 32 76-32 31-75-31-76-76-32-76 32-31 76z" horiz-adv-x="1071.4" />

<glyph glyph-name="pin-1" unicode="&#xe820;" d="M784 732c-76 76-176 118-281 118-107 0-205-41-285-118-109-109-146-269-96-416 78-226 260-385 362-459 5-4 15-7 20-7 7 0 11 1 14 4l3 3c41 28 249 183 354 452l3 7c50 148 14 308-94 416z m37-398c-67-193-211-328-296-395l0 0-21-16-14 11c-85 65-237 205-306 403-41 122-10 259 80 349 65 65 149 101 237 101 90 0 177-37 238-101 97-94 127-225 82-352z m-321 227c-35 0-72-15-102-42-25-26-40-62-40-100 0-37 14-71 42-102 26-25 62-40 100-40 35 0 72 15 102 42 25 26 40 62 40 100 0 37-14 71-42 102-26 26-62 40-100 40z m54-195l-1-1c-15-14-34-21-53-21-20 0-39 8-53 21l-1 1c-14 16-21 33-21 53 0 20 8 39 21 53l1 1c15 14 34 22 53 22 20 0 39-8 53-22l1-1c14-15 21-33 21-53 1-20-8-39-21-53z" horiz-adv-x="1000" />

<glyph glyph-name="rss-alt" unicode="&#xe821;" d="M18 15q0 112 112 112t111-112-111-112-112 112z m336 56q0 68-50 118t-118 50l0 112q116 0 197-82 83-85 83-198l-112 0z m-169 391l0 112q144 0 258-71t177-180q68-116 68-252l-112 0q0 112-54 201t-140 139q-89 51-197 51z m0 223l0 112q153 0 287-60t227-153 153-226 59-287l-112 0q0 130-50 242t-130 192-192 130-242 50z" horiz-adv-x="928" />

<glyph glyph-name="menu-1" unicode="&#xe822;" d="M68 62q0-30 21-51t51-21h793q30 0 51 21t21 51-21 51-51 21h-793q-29 0-51-21t-21-51z m0 288q0-30 21-51t51-21h793q30 0 51 21t21 51-21 51-51 21h-793q-29 0-51-21t-21-51z m0 288q0-30 21-51t51-21h793q30 0 51 21t21 51-21 51-51 21h-793q-29 0-51-21t-21-51z" horiz-adv-x="1073.2" />

<glyph glyph-name="desktop" unicode="&#xe823;" d="M0 154v607q0 37 26 63t63 26h893q37 0 63-26t26-63v-607q0-37-26-63t-63-27h-303q0-20 9-43t17-40 9-24q0-14-10-25t-25-11h-286q-15 0-25 11t-11 25q0 8 9 25t18 39 9 43h-304q-36 0-63 27t-26 63z m71 142q0-7 6-12t12-5h893q7 0 13 5t5 12v465q0 7-5 12t-13 6h-893q-7 0-12-6t-6-12v-465z" horiz-adv-x="1071.4" />

<glyph glyph-name="seta-direita" unicode="&#xe824;" d="M15 325c4-3 9-4 14-4l870 0-128-128c-11-11-11-30 0-42 12-12 31-12 42 0l178 178c6 5 9 13 9 21 0 8-3 16-9 21l-178 178c-5 6-13 9-21 9-7 0-15-3-21-9-12-12-12-31 0-42l127-128-868 0c-17 1-30-12-30-28 0-12 6-21 15-26z" horiz-adv-x="1000" />

<glyph glyph-name="newslatter" unicode="&#xe825;" d="M105 353c0 122 0 245 0 367 0 54 28 82 82 82 190 0 380 0 571 0 52 0 81-29 81-81 0-137 1-274 0-411-1-27 4-42 35-37 18 3 24-6 24-24-1-61-1-122 0-183 0-21-6-30-27-27-25 4-35-7-32-32 1-7 0-14 0-21 0-53-27-85-81-85-191-1-382-2-573 0-54 0-80 31-80 86 0 122 0 244 0 366 0 0 0 0 0 0l0 0z m151-200l0 0c66 38 125 74 185 107 15 8 33 13 50 13 82 1 164 1 246 0 21 0 28 5 28 28-1 132-1 265 0 398 0 21-5 29-27 28-177 0-355 0-532 0-19 0-27-5-27-26 0-231 0-462-1-694 0-22 7-30 30-30 176 1 352 1 529 0 27 0 27 13 28 33 2 24-8 30-30 29-83-1-166 0-248 0-10 0-21-1-29 3-66 35-131 72-202 111l0 0z m199 92l0 0c-31-18-66-28-82-52-13-18-13-59 0-77 17-23 52-32 82-50 0 61 0 117 0 179l0 0z m72 342c-52 0-104 0-157 0-14-1-25 1-25 20-1 20 10 23 26 23 104-1 208-1 312 0 15 0 26-1 26-22 0-22-12-22-27-21-52 0-103 0-155 0l0 0z m-1-126c-52 0-104 0-156 0-15 0-25 2-25 21 0 18 8 22 24 22 105 0 210 0 315 0 15 0 25-2 25-21 1-21-11-22-26-22-52 0-105 0-157 0l0 0z m0-126c-52 0-103 0-154 0-16 0-28 1-28 22 0 21 12 21 28 21 103 0 207 0 310 0 16 0 27 0 27-21 0-21-11-22-27-22-52 0-104 0-156 0l0 0z m-259 239c-22 1-35 12-36 33 0 22 12 36 33 36 22 1 35-12 36-33 1-22-12-34-33-36l0 0z m33-91c-1-21-12-34-34-35-22 0-34 13-35 34 0 22 12 35 34 36 22 0 33-13 35-35l0 0z m0-127c-2-21-14-34-36-33-21 0-33 14-33 35 1 22 14 35 36 34 21-1 32-15 33-36l0 0z" horiz-adv-x="1000" />

<glyph glyph-name="left-circle" unicode="&#xe826;" d="M1000 349q0-136-67-251t-182-182-251-67-251 67-182 182-67 251 67 251 182 182 251 67 251-67 182-182 67-251z m-453-232l71 71-161 161 161 161-71 71-233-232z" horiz-adv-x="1000" />

<glyph glyph-name="seta-esquerda" unicode="&#xe827;" d="M985 375c-4 3-9 4-14 4l-870 0 128 128c11 11 11 30 0 42-12 12-31 12-42 0l-178-178c-6-5-9-13-9-21s3-16 9-21l178-178c5-6 13-9 21-9s15 3 21 9c12 12 12 31 0 42l-127 128 868 0c17-1 30 12 30 28 0 12-6 21-15 26z" horiz-adv-x="1000" />

<glyph glyph-name="contato" unicode="&#xe828;" d="M860 282a369 369 0 0 1 49 1c57 7 103 59 103 116v83q0 104 0 209a131 131 0 0 1-2 23 118 118 0 0 1-116 97c-57 1-116 0-173 0h-316a138 138 0 0 1-24-2 120 120 0 0 1-75-45 101 101 0 0 1-22-57c-1-14-1-27-1-40 0-6 0-11 0-17-1-34-1-69-1-103q0-21 0-42v-8c0-7 0-13 0-20a8 8 0 0 0-10-8 74 74 0 0 1-12 1 62 62 0 0 1-47-22 319 319 0 0 1-44-60c-18-31-27-62-29-92a184 184 0 0 1 25-106c22-38 53-72 97-108 51-41 94-75 136-106 32-23 69-49 110-67a234 234 0 0 1 82-20 177 177 0 0 1 85 19 248 248 0 0 1 80 62 205 205 0 0 1 33 49 58 58 0 0 1-24 76l-12 7c-28 17-58 34-87 50a66 66 0 0 1-55 7c-12-4-21-12-31-26a133 133 0 0 0-21-26 56 56 0 0 0-40-15 87 87 0 0 0-51 19q-21 17-42 33l-20 16c-13 10-25 19-34 33-6 12-14 27-10 45a88 88 0 0 0 22 41 11 11 0 0 0 9 3h14q28 0 55 0h162a13 13 0 0 0 11-3c7-8 15-16 24-25 5-5 10-10 15-16 13-13 27-26 41-39 10-9 20-9 31 1 1 2 3 3 4 5l17 17c18 17 36 35 53 53a24 24 0 0 0 18 8c8-1 15-1 23-1z m-479-160l9-7c14-12 30-23 44-34l8-7a125 125 0 0 1 73-27c28 0 52 9 75 30a176 176 0 0 1 28 31c7 11 13 12 24 6 34-20 68-39 100-58 9-6 9-10 6-18a124 124 0 0 0-21-31c-15-18-34-39-60-55a123 123 0 0 0-62-18h-3c-37 0-67 12-92 24-41 21-78 48-105 69-12 9-24 19-36 28-24 18-48 36-71 56-29 24-63 54-88 92-18 29-27 56-26 84a158 158 0 0 0 21 73 311 311 0 0 0 36 52l1 1c7 8 11 12 17 12s11-4 18-11q32-32 64-64c2-3 5-5 7-7l4-4c9-10 9-16 0-26a193 193 0 0 1-21-30c-25-43-20-90 12-128a237 237 0 0 1 38-33z m417 193q-15-15-30-30-16-17-32-33a9 9 0 0 0-15 0q-14 13-27 27c-12 11-23 23-35 35a35 35 0 0 1-27 11q-60 0-119 0-49 0-97 0a11 11 0 0 0-13 10c-2 14-10 25-19 34-19 21-35 39-52 54a20 20 0 0 0-7 16q0 73 0 145 0 56 0 112c0 37 33 71 70 72 28 2 57 1 85 1 14 0 28 0 42 0 27 0 55 0 82 0h91q77 0 154 0c12 0 24 0 35 0l12-1a76 76 0 0 0 71-60 91 91 0 0 0 2-17v-68q0-111 0-221a76 76 0 0 0-61-76 114 114 0 0 0-25-1h-17c-15 0-29 0-43 0a31 31 0 0 1-25-10z m-359 171a21 21 0 0 1 7-23 25 25 0 0 1 17-5h372a23 23 0 0 1 17 9 22 22 0 0 1 4 18 21 21 0 0 1-23 16h-360l-14 0a21 21 0 0 1-20-15z m396 150h-375a21 21 0 0 1-20-31 19 19 0 0 1 19-12h377a20 20 0 0 1 5 1 22 22 0 0 1 15 22 21 21 0 0 1-21 20z" horiz-adv-x="1151" />

<glyph glyph-name="vcard-1" unicode="&#xe829;" d="M990-66l-834 0q-65 0-110 46t-46 110l0 520q0 65 46 111t110 46l834 0q65 0 111-46t45-111l0-520q0-65-45-110t-111-46z m-834 729q-21 0-37-16t-15-37l0-520q0-21 15-37t37-15l834 0q21 0 36 15t15 37l0 520q0 22-15 37t-36 16l-834 0z m313-469l-209 0q-21 0-36 16t-15 37 15 36 36 15l209 0q21 0 37-15t15-36-15-37-37-16z m0 209l-209 0q-21 0-36 15t-15 36 15 37 36 16l209 0q21 0 37-16t15-37-15-36-37-15z m209 25q0 105 103 105t104-105q0-104-104-104t-103 104z m103-148q57 0 93-22t37-53q0-15-37-26t-93-11q-58 0-94 11t-36 26q0 30 36 53t94 22z" horiz-adv-x="1146" />

<glyph glyph-name="book" unicode="&#xe82a;" d="M6 96q0 2 1 15t3 20q0 5-2 12t-2 11q1 6 5 12t9 13 9 13q13 21 25 51t17 51q2 6 0 17t0 16q2 6 9 15t10 13q12 20 23 51t14 51q1 5-1 17t0 16q2 7 12 17t13 13q10 14 23 47t16 54q0 4-2 14t-1 15q1 4 5 10t10 13 10 11q4 7 9 17t8 20 9 20 11 18 15 13 20 6 26-3l0-1q21 5 28 5h425q41 0 63-32t10-72l-152-506q-20-66-40-86t-72-19h-485q-15 0-21-8-6-9-1-24 14-39 81-39h515q16 0 31 8t19 24l168 550q4 13 3 32 21-8 33-24 22-32 10-72l-154-505q-10-36-42-60t-69-25h-515q-43 0-83 30t-55 74q-14 37-1 70z m269 343q-3-7 1-12t11-6h339q7 0 14 6t10 12l11 36q3 7-1 13t-11 5h-339q-8 0-14-5t-10-13z m46 143q-2-7 1-12t11-6h339q8 0 15 6t9 12l12 36q2 7-2 12t-11 6h-339q-7 0-14-6t-9-12z" horiz-adv-x="928.6" />

<glyph glyph-name="info-tecnicas" unicode="&#xe82b;" d="M809 706h-467a90 90 0 0 1-89-90v-532a90 90 0 0 1 89-89h467a90 90 0 0 1 90 89v532a90 90 0 0 1-90 90z m44-622a44 44 0 0 0-44-44h-467a44 44 0 0 0-44 44v532a44 44 0 0 0 44 44h467a44 44 0 0 0 44-44z m-300 404h-139a23 23 0 0 1 0-46h139a23 23 0 0 1 0 46z m160-51h2a26 26 0 0 1 0 52h-2a26 26 0 0 1 0-52z m-160-64h-139a23 23 0 1 1 0-46h139a23 23 0 1 1 0 46z m0-115h-139a23 23 0 1 1 0-46h139a23 23 0 1 1 0 46z m162 151c-14 1-24-10-24-25 0-73 0-119 0-150a23 23 0 1 1 47 2c0 65 0-32 0 33 0 75 0 40 0 115a23 23 0 0 1-23 25z" horiz-adv-x="1151" />

<glyph glyph-name="descontos" unicode="&#xe82c;" d="M1094 583l-127 38-457 138a71 71 0 0 1-90-48q-10-32-20-64-26-87-52-174a8 8 0 0 0-9-7q-130 1-260 0a72 72 0 0 1-73-72q0-192 0-383a75 75 0 0 1 5-29c11-28 37-45 69-45h303c102 0 203 1 304 0a72 72 0 0 1 74 74c-1 38 0 76 0 113 0 7 0 7 6 5 58-17 116-35 174-52 40-12 79 9 91 49q54 180 108 360a96 96 0 0 1 6 29 71 71 0 0 1-52 68z m-700-110c6 20 12 40 18 60 1 3 2 4 6 3q111-34 222-67c1 0 2-1 4-1a9 9 0 0 0-6-1h-240c-6 0-6 0-4 6z m323-461c0-20-11-31-31-31h-605c-20 0-31 11-31 32q0 189 0 378c0 20 11 32 31 32h302c101 0 202 0 303 0a30 30 0 0 0 31-31c-1-127 0-253 0-380z m333 326q-30-100-60-199c-6-17-20-25-37-20q-93 28-187 56a6 6 0 0 0-5 7c0 71 0 141 0 211a77 77 0 0 1-13 43l49-14q124-38 248-75c7-2 7 0 4-9z m24 80c-3-8-6-17-8-26-1-4-3-5-7-3q-69 21-139 42l-461 138c-9 3-19 6-29 9-3 1-4 2-3 5 3 11 6 21 9 31 0 2 0 4 3 3l4-1 264-79 361-109c8-2 8-2 6-10z m26 88c-3-11-7-22-10-33-1-4-3-5-7-3q-72 21-144 43l-480 144c-9 3-9 3-6 12 3 10 6 20 9 30a27 27 0 0 0 27 19 31 31 0 0 0 11-2l504-152q38-11 77-23a27 27 0 0 0 19-35z m-622-183a22 22 0 0 1-6 30c-11 8-24 4-32-9q-51-89-103-177c-15-26-30-50-44-76a22 22 0 1 1 39-21q46 80 92 159 27 47 54 94z m-100-30a63 63 0 1 1-66-63c37 0 65 27 66 63z m-82 1a19 19 0 1 0 19-20 19 19 0 0 0-19 20z m160-115a63 63 0 1 1 63-63 63 63 0 0 1-63 63z m0-82a19 19 0 1 0 19 20 20 20 0 0 0-19-20z" horiz-adv-x="1151" />

<glyph glyph-name="teatro-1" unicode="&#xe82d;" d="M1016 810a23 23 0 0 1-15 23 51 51 0 0 1-15 1h-469l-359 0a22 22 0 0 1-23-23q0-342 0-684c0-15 8-24 24-24 28 0 55 0 83 0 5 0 6-1 6-6 0-13 0-27 0-41a22 22 0 0 1 23-23q78 0 156 0a22 22 0 0 1 22 23c0 17 0 33 0 50a70 70 0 0 1-56 68c-12 2-24 1-36 1a6 6 0 0 0-6 5q-29 85-57 171c-1 4-1 6 3 7 19 10 37 19 55 29a479 479 0 0 1 102 77 311 311 0 0 1 78 126c1 4 2 4 6 3a104 104 0 0 1 75 0c3 1 4 1 5-3 20-62 58-113 109-154a637 637 0 0 1 117-73c4-2 11-3 13-7s-2-10-4-15c-17-53-35-107-52-160a7 7 0 0 0-9-6c-7 1-15 0-22 0a69 69 0 0 1-68-62c-2-20-1-39 0-58a22 22 0 0 1 22-22q78 0 155 0a22 22 0 0 1 23 23c0 14 0 28 0 41 0 5 1 6 6 6 28 0 57 0 85 0a21 21 0 0 1 23 23c0 189-1 377 0 566 1 40 0 79 0 118z m-638-678a26 26 0 0 0 27-26c0-8 0-16 0-24 0-4-2-5-5-5-18 0-35 0-52 0s-34 0-51 0c-5 0-6 2-6 6 1 9-1 18 1 27a26 26 0 0 0 26 22q30 0 60 0z m116 485c-16-62-52-111-103-151-39-30-83-53-128-75-2-1-4-2-7-3a22 22 0 0 1-11-28q17-53 35-106c8-25 16-50 25-75 1-3 1-4-3-5a67 67 0 0 1-38-23 9 9 0 0 0-7-4c-24 0-49 0-73 0-5 0-6 2-6 6q0 167 0 334v119a127 127 0 0 1 29-14 105 105 0 0 1 113 31c3 4 5 3 8 0a105 105 0 0 1 153-7c2 2 5 5 7 8 1 1 2 3 4 2a5 5 0 0 0 3-5c0-2 0-3-1-4z m143 75a62 62 0 0 0-60-62 61 61 0 0 0-63 57c-1 9-2 18-10 23a22 22 0 0 1-23 1 20 20 0 0 1-12-19 62 62 0 0 0-123-4 29 29 0 0 1-5 18 22 22 0 0 1-24 7 23 23 0 0 1-15-22c-2-34-25-59-59-61a61 61 0 0 0-63 51 74 74 0 0 0-1 13c0 30 0 60 0 89 0 5 1 7 6 7q195 0 390 0t390 0c6 0 7-2 7-7 0-31 0-62 0-92a62 62 0 0 0-122-12 57 57 0 0 0-1 12c0 12-9 22-19 22-15 1-24-6-25-21a72 72 0 0 0-7-29 62 62 0 0 0-116 19 69 69 0 0 0-1 10 22 22 0 0 1-44 0z m217-615c-18 0-35 0-52 0s-35 0-52 0c-3 0-5 1-5 5 0 8 0 16 0 24a26 26 0 0 0 27 26h60a26 26 0 0 0 26-27c0-8 0-15 0-23 1-4 0-5-4-5z m118 77c0-5-1-7-7-7-24 1-47 0-71 0a9 9 0 0 0-8 4 67 67 0 0 1-36 23c-4 1-5 2-4 6q30 89 59 179c5 13 0 24-13 30a754 754 0 0 0-117 66c-38 27-71 59-94 100a267 267 0 0 0-25 62c-1 6-1 6 3 10a107 107 0 0 1 45-33 105 105 0 0 1 119 29c2 3 3 5 7 1 37-42 91-49 138-20 1 0 2 1 3 1a10 10 0 0 0 1-6q0-222 0-445z m-478-146q-32 0-64 0a69 69 0 0 1-67-56c-4-22-2-44-1-67 0-13 10-20 23-20h155a21 21 0 0 1 22 22q0 26 0 52a70 70 0 0 1-68 69z m20-99c-17 0-34 0-52 0s-34 0-52 0c-3 0-5 1-5 4 1 9 0 18 1 26a26 26 0 0 0 25 25c21 0 42 0 62 0a26 26 0 0 0 26-26c0-8 0-16 0-24 0-4-1-5-5-5z m-245 98q-34 1-67 0a70 70 0 0 1-67-67q0-26 0-52a21 21 0 0 1 23-22h154c15 0 24 8 24 23 0 19 1 37-1 56-2 33-33 62-66 62z m18-98c-17 0-35 0-52 0s-35 0-52 0c-3 0-5 1-4 4 0 8 0 16 0 24a26 26 0 0 0 26 27q30 0 61 0a26 26 0 0 0 26-25c0-9 0-17 0-26 0-3-1-4-5-4z m431 99h-61a70 70 0 0 1-69-69c0-17 0-34 0-51a22 22 0 0 1 23-23h155a22 22 0 0 1 23 24c0 16 0 32 0 48a70 70 0 0 1-71 71z m23-99c-18 0-35 0-53 0s-34 0-51 0c-3 0-5 1-5 5 0 7 0 15 0 22a27 27 0 0 0 28 28q28 0 57 0a27 27 0 0 0 29-28c0-8 0-15 0-23 0-3-2-4-5-4z m-65 147c0 17 0 35 0 52a69 69 0 0 1-68 68q-33 0-65 0a69 69 0 0 1-68-69c0-16 1-33 0-49a23 23 0 0 1 24-25c26 1 51 0 76 0s52 0 78 0a22 22 0 0 1 23 23z m-49 21c-18 0-35 0-52 0s-34 0-51 0c-4 0-6 1-5 5 0 8 0 16 0 23a26 26 0 0 0 26 27q30 0 60 0a26 26 0 0 0 27-27c0-8 0-15 0-23 0-4-1-5-5-5z m320-69q-32 0-63 0a69 69 0 0 1-68-57c-3-22-1-45-1-68 1-10 11-18 21-18 27 0 53 0 79 0h78a21 21 0 0 1 23 23c0 17 0 34 0 51a70 70 0 0 1-69 69z m20-99c-17 0-35 0-52 0s-35 0-52 0c-3 0-5 1-4 4 0 8 0 16 0 24a26 26 0 0 0 26 27q30 0 61 0a26 26 0 0 0 26-27c0-8 0-16 0-24 0-3-1-4-5-4z" horiz-adv-x="1151" />

<glyph glyph-name="star-workshops" unicode="&#xe82e;" d="M741-118q-19 0-39 12l-213 121-215-121q-44-24-84 3-41 29-31 79l50 243q-10 9-39 35t-45 40l-99 90q-37 35-21 82t66 54l244 26 102 225q22 47 72 47 47 0 71-47l101-225 245-27q48-4 65-52t-21-83l-183-166 50-242q7-35-16-64t-60-29z m-425 343q-1-4-7-36t-17-84-20-92l190 107q27 14 52 0l190-107-44 213q-6 29 16 49l161 148-217 23q-30 4-41 30l-90 199-90-199q-13-26-43-30l-216-23 161-148q21-19 15-50z" horiz-adv-x="976" />

<glyph glyph-name="programacao" unicode="&#xe82f;" d="M83 358q0 74 0 148c0 44-1 89-1 134a76 76 0 0 0 8 37c14 25 35 39 63 40 32 0 63 0 95 0 5 0 6 1 6 6 0 22 0 45 0 67 0 14 9 23 22 23s22-9 22-23c0-22 0-44 0-67 0-5 1-6 7-6q157 0 314 0c5 0 7 1 6 7 0 22 0 44 0 66a21 21 0 0 0 12 21 22 22 0 0 0 32-20c0-23 0-46 0-69 0-4 1-5 6-5 32 0 64 0 95 0a71 71 0 0 0 71-56 70 70 0 0 0 1-16q0-128 0-256c0-4 1-6 6-7 92-12 159-61 199-144a230 230 0 0 0 22-96 243 243 0 0 0-73-184 234 234 0 0 0-149-71c-102-8-181 31-237 116a9 9 0 0 1-9 4h-445c-38 0-66 24-73 61a94 94 0 0 0-1 16q1 137 1 274z m379 157h-328c-9 0-8 1-8-8q0-211 0-422a69 69 0 0 1 1-8c2-16 12-26 28-26q213 0 425 0c4 0 6 1 4 5a235 235 0 0 0-12 70c-1 12-1 12-13 12h-117c-15 0-23 8-23 22 0 10 0 21 0 31a53 53 0 0 0 9 31 131 131 0 0 0 31 33c16 13 34 25 50 38a123 123 0 0 1 34 36c13 24 0 53-26 56-23 2-41-11-41-33a23 23 0 0 0-20-23c-16-2-28 1-31 17a62 62 0 0 0 17 57c32 33 89 37 127 10a72 72 0 0 0 32-62c0-28-12-49-30-68-15-16-32-27-49-39a256 256 0 0 1-37-30 34 34 0 0 1-12-26c0-4 2-5 6-5 30 0 61 0 91 0 5 0 6 1 7 6a248 248 0 0 0 216 194c5 0 5 2 5 5q0 60 0 120c0 7 0 7-7 7z m358-175a206 206 0 0 1-205-205c0-113 93-206 205-205a205 205 0 1 1 0 410z m-357 218q164 0 328 0c6 0 7 2 7 7 0 27 0 53 0 79a27 27 0 0 1-27 28c-32 0-64 0-97 0-4 0-5-1-5-5 0-17 0-34 0-51a22 22 0 0 0-31-20 21 21 0 0 0-13 21c0 16 0 33 0 49 0 5-1 6-6 6q-157 0-315 0c-5 0-6-1-6-6 0-16 0-33 0-49a22 22 0 0 0-23-23c-12 0-21 10-21 23 0 17 0 34 0 50 0 3 0 5-4 5-33 0-65 0-98 0a25 25 0 0 1-25-25c-1-27 0-54 0-80 0-10-1-9 8-9z m-160-191c-2-3-4-6-7-9a15 15 0 0 0-18-6 19 19 0 0 0-12 16 23 23 0 0 0 10 23c16 12 32 24 47 36 8 7 25 4 32-4a13 13 0 0 0 3-9q0-130 0-259a14 14 0 0 0-9-14 40 40 0 0 0-35 0 16 16 0 0 0-9 16q0 101 0 202v6z m495-171q0 30 0 59c0 15 9 24 22 24s22-9 22-23c0-35 0-69 0-103a17 17 0 0 1 7-14q45-39 90-79a22 22 0 0 0-1-34 22 22 0 0 0-29 2c-20 17-39 34-59 51-14 13-28 25-42 37a26 26 0 0 0-10 21c0 20 0 39 0 59z" horiz-adv-x="1151" />

<glyph glyph-name="parcela-fixa" unicode="&#xe830;" d="M603 604c1 22-9 44-28 60l0 0c-19 16-41 24-67 26l-3 0c-15 1-31 2-45 12-13 9-16 19-16 26 0 7 3 17 16 26 22 16 58 16 80 0 10-8 15-16 15-27 1-6 4-12 9-17 4-4 10-6 17-5 6 0 11 3 15 8 5 5 7 12 6 20l0 0c0 5-1 12-3 17-10 28-30 46-61 56-12 4-15 11-15 21 0 8-4 16-12 20-7 4-15 4-23 0-9-5-13-13-12-24 0-8-4-14-12-16-13-3-25-9-36-18-20-16-31-36-31-59-1-22 9-44 27-60 20-17 45-26 74-27 17 0 30-3 41-10 11-8 17-17 17-27 0-10-6-20-17-27-22-15-56-15-78 0-10 7-16 16-17 28-1 13-10 22-22 22 0 0-1 0-1 0-12 0-22-8-23-20-2-8 0-16 3-26 10-28 31-47 64-57 5-2 13-5 12-17-1-7 2-14 8-19 8-6 16-7 24-3 10 4 15 11 15 21-1 10 4 16 14 19 11 3 22 9 33 17 20 16 32 37 32 60z m25-233c-37 28-79 41-138 43l-1 0 0 0c-3-1-7-1-10-1-6 0-12-1-18-1-44-7-74-19-102-41-7-5-10-12-10-20-1-11 4-19 13-25 10-6 21-5 30 2 12 8 18 11 32 16l2 1c22 9 43 13 65 13 19 0 39-4 58-11l2-1c20-7 38-14 54-28 6-6 12-9 19-9 8 0 15 4 21 10 10 11 9 27-3 38-4 5-9 9-14 14z m68-134c6-7 16-11 25-11 21 0 36 16 37 36 0 19-16 36-36 36 0 0 0 0 0 0-10 0-19-4-26-10-7-7-11-16-11-25 0-10 4-19 11-26z m293-39c0 4 0 8 0 13l0 14c0 11 0 22 0 32 0 35-27 64-61 66-12 1-23 1-37 1l-6 0-3 6c-14 38-35 73-63 103-16 16-30 30-46 41l-4 3 1 5c0 4 0 8 1 11l1 7c0 7 1 14 2 22 1 16 3 33 5 49 1 10-2 19-9 25-7 7-17 9-27 6-35-8-66-16-95-23-12-3-21-14-21-27v0c0-18 17-31 34-27l59 15-4-29c-1-4-1-7-1-8l-4-38c-1-9 4-19 12-24 7-5 13-9 20-14 46-35 77-82 94-139 4-12 14-20 26-20l24 0c11 0 23 0 34 0 2 0 4 0 5 0l6-2 1-5c1-2 1-4 1-5 0-11 0-21 0-31l0-13 0-13c0-10 0-20 0-30 0-2 0-4-1-6l-1-6-6-1c-2-1-4-1-6-1-6 0-11 0-16 0l-2 0c-18 0-35 0-53 0-11 1-20-4-26-15l-3-5c-3-6-7-13-11-19-22-36-52-66-88-89-2-1-4-2-6-4-14-8-18-19-15-34l1-2c3-17 7-34 11-50 0-2 0-3 0-4l5-4-7-7c-3-3-7-4-14-6-9-2-19-4-28-8-5-2-9-3-12-2l-2 1-2 2c-2 1-3 4-4 7-3 9-5 18-8 27l-1 7c-6 21-18 28-39 23-45-10-90-14-135-10-25 2-50 7-79 14-19 5-30 0-39-18-2-4-4-9-7-13-5-11-11-23-17-34-1-4-4-6-7-7-1-1-2-1-3-1-2 0-5 1-7 2-6 4-12 8-18 11-6 3-12 7-18 10-8 5-11 16-6 24l7 11c4 8 9 16 13 24 9 14 4 33-10 42-38 27-67 58-88 94-24 42-34 86-30 132 5 52 27 98 63 138 38 40 82 69 136 89 11 4 18 14 18 26v0c0 19-19 33-37 26-31-11-60-26-87-44-51-33-90-75-116-126l-6-10-12 3c-17 6-32 19-41 37-9 17-11 38-5 55 4 12 11 22 22 34 6 5 9 13 9 20-1 7-4 14-9 19-5 5-12 7-19 7-7 0-14-2-20-8-26-23-40-54-41-90-1-57 34-108 89-126l8-2-2-9c-13-61-6-120 21-177 21-44 53-83 93-115l6-5-5-8c-2-4-4-7-6-11-21-32-6-75 21-92 14-10 29-18 46-27 5-3 10-5 15-6 27-7 54 4 69 27 7 10 12 20 17 31l5 11 8-2c31-7 62-11 93-11 32-1 63 1 93 7l8 2 3-9c1-4 2-7 3-11 9-30 41-50 72-44 15 2 29 5 44 9l3 1c32 7 53 34 52 66-1 13-4 26-7 38-1 4-2 8-2 11l-2 6 6 4c41 28 75 64 100 108l3 4 6 0c6 0 13 0 20 0 10 0 20 0 30 0 19 0 37 7 50 21 13 13 20 31 19 49-1 9-1 18-1 28z" horiz-adv-x="1000" />

<glyph glyph-name="narede" unicode="&#xe831;" d="M880 27c-34-32-52-7-72 12-70 70-140 140-210 211-121 121-243 241-363 363-18 17-39 33-48 55 10 26 24 29 45 20 136-59 271-118 406-178 24-10 43-29 53-53 64-143 126-286 189-430l0 0z m-730 406c19 16 30 11 40 7 85-37 170-74 254-110 29-13 51-30 64-60 38-92 78-183 118-274 2-6 2-13-14-27-42 27-75 71-113 107-42 40-82 82-123 122-39 40-79 78-117 118-37 39-80 72-109 117l0 0z" horiz-adv-x="1000" />

<glyph glyph-name="swimming" unicode="&#xe832;" d="M556 675c-8 0-21-5-28-8l-200-97c-26-12-36-51-19-75l61-82-223-174 103-33 134 44c5 2 11 3 16 3s10-1 16-3l134-44 70 24-192 278 152 76c30 15 28 41 25 57-3 14-21 34-49 34z m94-150c-55 0-100-45-100-100 0-55 45-100 100-100 55 0 100 45 100 100 0 55-45 100-100 100z m-550-350c-5 0-12-2-16-3l-84-28 0-103 100 34 134-47c6-2 11-3 16-3 5 0 11 2 16 3l134 47 134-47c6-2 11-3 16-3 5 0 11 2 16 3l134 47 150-50 0 103-134 44c-5 2-11 3-16 3s-10-1-16-3l-134-44-134 44c-6 2-11 3-16 3s-11-2-16-3l-134-44-134 44c-7 2-11 3-16 3z" horiz-adv-x="850" />

<glyph glyph-name="flexibilidade-pagamento" unicode="&#xe833;" d="M307 298c-9-10-24-11-34-2-61 61-96 143-96 231 0 178 145 323 323 323s323-145 323-323c0-88-34-170-96-231-10-9-25-9-34 2v0c-8 9-7 23 1 31 53 52 83 123 83 198 0 153-124 277-277 277s-277-124-277-277c0-75 30-146 83-198 8-8 9-22 1-31l0 0z m328-72c-7 0-14-1-21-4-10 17-29 27-49 27-7 0-14-1-21-4-10 17-29 27-49 27-4 0-8-1-12-2l1 36c0 16-6 31-17 42-11 11-26 17-42 17-32-1-59-27-59-60l-1-142-18-18c0 0 0 0 0 0-26-27-40-61-41-98 0-37 14-71 40-97l51-51c33-32 76-49 122-49 46 1 89 19 122 52 33 33 51 77 52 123l1 143c0 33-26 59-59 58z m10-202c0-69-57-126-126-127-33 0-65 13-88 36l-51 51c-17 17-27 39-26 63l0 0c0 15 4 30 11 43l0-31c0-13 10-23 23-23 13 0 24 11 24 24l2 246c0 6 5 11 11 11 3 0 6-1 8-3 2-2 4-5 4-8l-1-152c0-13 10-24 23-24 13 1 24 11 24 24l0 59c0 3 2 6 4 8 0 0 0 0 0 0 2 2 5 4 8 4 3 0 6-2 8-4 2-2 3-5 3-8l0-35c0-6 3-12 7-16 4-5 10-7 17-7 13 0 23 11 23 24l0 12c0 3 2 6 4 8l0 0c2 2 5 3 8 3 6 0 11-5 11-11l0-24c0-6 3-12 7-16 4-5 10-7 17-7 13 0 23 11 23 24 0 3 2 6 4 8l0 0c2 2 5 4 8 4 6 0 11-5 11-12l-1-144z m-55 445c1 20-8 39-25 53l0 0c-16 14-35 21-58 22l-2 1c-14 0-27 1-40 10-11 8-14 17-14 23 0 6 2 15 14 23 20 13 51 13 70-1 8-6 13-14 13-23 0-6 3-11 7-15 4-3 10-5 15-5 5 1 10 3 14 7 4 5 5 11 5 18l0 0c0 5-1 10-3 15-9 24-26 40-53 49-11 4-13 10-13 18 0 7-4 14-10 17-6 4-14 4-20 1-8-5-11-11-11-21 0-8-3-12-10-14-11-3-22-8-32-16-17-14-26-32-27-51-1-20 8-38 24-52 17-15 39-23 64-24 15 0 26-3 36-9 9-6 15-15 15-23 0-9-5-17-15-24-19-13-49-13-68 0-9 7-14 14-14 24-1 12-9 19-20 20 0 0-1 0-1 0-10 0-19-7-20-18-1-6 0-14 3-22 9-25 27-41 56-50 4-1 10-4 10-14-1-7 2-12 7-17 7-5 14-6 21-3 9 4 13 10 13 19-1 9 3 13 12 16 10 2 19 7 29 15 18 13 27 32 28 51z" horiz-adv-x="1000" />

<glyph glyph-name="pagamento-dobro" unicode="&#xe834;" d="M768 384v132l0 0v89c0 42-22 79-56 99-1 1-3 2-4 3-17 9-36 14-56 14l0 0h-58v75c0 13-11 23-23 23-13 0-23-10-23-23v-75h-329v75c0 13-10 23-23 23-13 0-23-10-23-23v-75h-57l0 0c-20 0-39-5-55-14-2-1-3-2-5-3-34-20-56-57-56-99v-89l0 0v-397c0-64 52-116 116-116h413c44-73 125-122 216-122 139 0 253 113 253 252 0 131-101 239-230 251z m-595 291v-57c0-12 10-23 23-23 12 0 23 11 23 23v57h329v-57c0-12 10-23 23-23 12 0 23 11 23 23v57h58c39 0 71-31 71-70v-43h-677v43c0 39 32 70 70 70h57z m-57-626c-39 0-70 32-70 71v396h677v-132c-129-12-230-120-230-251 0-29 5-57 15-84h-392z m629-122c-113 0-206 92-206 206s93 206 206 206c114 0 207-92 207-206s-93-206-207-206z m-19 143h-71v7c0 4 2 10 8 15 6 5 12 10 20 16 8 5 16 11 24 17 8 7 15 14 21 23 5 9 8 19 8 29 0 16-6 28-17 38-11 9-25 14-41 14-14 0-27-5-38-13-11-9-17-21-17-35 0-12 5-18 15-18 6 0 10 2 13 4 3 3 5 6 5 9 0 8 2 14 6 17 4 4 10 6 17 6 8 0 13-2 18-7 4-4 6-10 6-16 0-7-3-13-9-20-6-7-13-13-21-19l-24-18c-8-6-14-13-19-20-5-8-8-15-8-23v-25c0-3 2-5 5-7 3-2 6-3 10-3h89c3 0 5 1 7 4 2 3 4 7 4 11 0 4-1 7-4 10-2 3-4 4-7 4z m110 33l28 40c2 2 2 4 2 5 0 4-2 7-7 11-6 4-10 6-15 6-3 0-6-1-7-4l-24-37-23 37c-2 3-4 4-8 4-4 0-9-2-14-6-5-3-8-7-8-11 0-2 1-4 2-5l28-40-30-42c-2-2-2-4-2-6 0-3 2-7 8-11 5-3 9-5 13-5 4 0 7 1 8 3l26 39 26-39c2-2 4-3 8-3 4 0 9 2 14 5 5 4 7 8 7 11 0 3 0 5-2 6l-30 42z" horiz-adv-x="1000" />

<glyph glyph-name="pagamento" unicode="&#xe835;" d="M746 199c1 54-23 105-68 144l0 0c-44 37-97 58-159 61l-6 0c-36 2-74 4-108 28-32 22-39 46-39 63 0 16 7 40 39 62 53 37 138 36 190-2 24-17 36-37 37-62 1-16 7-30 19-40 11-10 26-15 40-14 15 1 29 8 38 19 10 12 15 29 14 47l0 2c0 12-3 27-8 41-23 65-71 108-146 133-28 10-34 27-34 48-1 21-11 39-28 49-17 10-37 10-54 0-22-12-31-30-30-56 0-21-9-33-29-39-30-8-58-22-86-44-46-36-73-86-74-139-2-54 22-104 65-142 47-42 107-63 176-65 42 0 71-8 98-25 26-17 40-40 40-64 1-24-14-47-39-64-53-35-134-35-186 0-25 17-38 39-40 66-2 31-24 52-54 53 0 0-1 0-2 0-29 0-51-19-55-48-3-18 0-38 8-62 25-66 74-110 152-135 13-4 30-12 28-39-1-19 6-34 20-46 18-15 37-18 58-9 23 10 34 28 34 52-1 24 10 37 33 44 27 7 53 21 80 41 48 37 75 87 76 142z" horiz-adv-x="1000" />

<glyph glyph-name="stop" unicode="&#xe836;" d="M0 4v691q0 26 19 45t45 21h693q27 0 45-19t19-46v-691q0-27-19-46t-45-20h-693q-26 0-45 19t-19 46z" horiz-adv-x="821.3" />

<glyph glyph-name="aluno-nao-regular" unicode="&#xe837;" d="M898 750h-796c-56 0-102-45-102-102v-596c0-57 46-102 102-102h796c56 0 102 45 102 102v596c0 57-46 102-102 102z m62-698c0-34-28-62-62-62h-796c-34 0-62 28-62 62v596c0 34 28 62 62 62h796c34 0 62-28 62-62v-596z m-543 385h-283c-11 0-20-9-20-21 0-11 9-20 20-20h283c12 0 21 9 21 20-1 12-10 21-21 21z m0-133h-283c-11 0-20-9-20-21s9-20 20-20h283c12 0 21 9 21 20s-10 21-21 21z m296-110c-1 2-1 3-2 4-1 1-2 2-2 3-1 1-2 2-3 2-1 1-3 2-4 2-1 1-2 1-4 1-6 2-13 0-18-5-1-1-2-2-2-3-1-1-2-2-2-4-1-1-1-2-1-3 0-2-1-3-1-4 0-6 3-11 6-15 4-3 9-6 14-6 6 0 11 3 15 6 3 4 6 9 6 15 0 1-1 2-1 4 0 1-1 2-1 3z m-7 339c-90 0-116-65-117-99-1-11 8-20 19-21 11 0 20 8 21 19 0 6 5 61 77 61 46 0 61-33 66-47 8-25 3-53-12-64-9-6-17-11-24-16-33-20-61-38-61-107 0-12 8-21 20-21 0 0 0 0 0 0 11 0 20 9 20 20 0 48 13 56 42 74 8 5 17 10 26 17 29 22 41 68 27 110-15 46-54 74-104 74z" horiz-adv-x="1000" />

<glyph glyph-name="bancas" unicode="&#xe838;" d="M256 66c-33-6-46 4-40 40 7 24 7 52 10 77 4 18 7 34-8 49-6 8-10 23-3 31 24 31 18 74 38 107 13 23 1 28-17 33-23 6-44 14-67 21-8 1-18 3-18 13 0 10 10 11 18 13 113 34 224 71 338 107 13 3 24 1 36-2 106-34 214-67 321-102 10-3 26-3 26-16 0-16-18-15-28-18-105-33-209-66-314-98-22-7-40-5-61 1-53 18-105 33-157 51-23 8-38 3-45-21-6-28-28-56 0-84 5-5 7-18 4-23-28-46-7-93-2-139 10-33 5-48-31-40z m270 82c-44 2-85 5-124 18-77 25-87 40-81 118 5 50 7 55 51 33 105-49 208-46 312 2 29 13 44 15 46-28 4-88-10-111-97-131-36-8-74-10-107-12z m487 202c0 138-56 262-146 353l0 0 0 0c-90 90-214 145-352 145s-262-55-353-145l0 0 0 0c-90-91-146-215-146-353 0-138 56-261 145-353l1-1c91-90 215-146 354-146 138 0 263 56 355 146l0 0c85 92 142 216 142 354z m-175-320l0 0c-84-82-199-131-325-131-126 0-241 51-324 133l-2 2c-82 82-133 193-133 318 0 124 51 237 135 318l0 0c83 82 198 131 324 131s241-51 325-131l0 0c83-82 134-194 134-318s-52-240-134-322l0 0z" horiz-adv-x="1000" />

<glyph glyph-name="calendario" unicode="&#xe839;" d="M805 555c0 33-20 49-51 51-15 1-31 1-47 0-22-2-35 1-33 28 1 13-5 26-21 24-15-1-19-15-19-26 4-26-11-31-32-28-15 2-31 2-48 0-21-1-36 2-33 28 2 11-1 25-16 25-18 1-21-14-20-27 4-27-13-29-32-27-14 1-27 1-38 0-25-2-46-2-41 32 1 10-5 20-18 22-10 1-20-5-18-14 5-52-33-39-61-39-57 0-72-15-72-70 0-135 0-271 0-405 0-53 15-67 69-67 77 0 154 0 231 0 80 0 159 0 239 0 35 0 59 14 59 50 2 150 2 297 2 443z m-72-454c-76 2-151 0-226 0-74 0-148 2-222 0-29 0-39 6-39 38 2 132 0 264 0 396 0 18-2 40 25 33 22-6 60 26 65-25 2-13 3-27 18-29 20-2 23 16 21 29-1 23 12 27 30 25 16-2 31-2 48 0 22 2 39 0 36-31-2-12 3-23 18-25 13 0 19 10 18 20-5 38 19 36 44 34 13 0 26 0 38 0 18 2 31-1 29-24-2-15 2-31 21-30 17 0 18 17 18 30 5 51 45 18 66 24 26 7 25-14 25-31 0-134 0-267 0-401 1-27-9-33-33-33z m-348 93c-28 2-51-8-51 30 0 31 19 29 38 29 20 0 43 7 41-29-1-31-15-33-28-30z m120 2c-21-2-38-2-36 29 0 32 18 28 38 30 23 0 39 0 39-33-2-36-23-24-41-26z m129 0c-21-3-36-2-36 29 0 37 22 28 41 30 22 2 36 0 38-30 0-39-24-27-43-29z m-260 241c16-2 39 10 39-25 0-32-18-29-38-28-18 2-41-9-41 27 0 29 19 29 40 26z m131-54c-21-2-38-3-36 28 0 34 21 24 39 26 20 2 38 3 38-28-2-34-23-25-41-26z m139 1c-29-3-46-3-44 28 0 36 25 23 41 25 21 2 38 3 38-30-4-34-28-21-35-23z m-272-95c-16 0-38-6-38 27 0 34 22 26 40 26 18 0 39 6 39-26 0-33-20-27-41-27z m133 0c-23-3-36 0-36 30 0 34 23 23 39 24 22 2 38 2 36-29 0-34-23-21-39-25z m138 2c-30-3-45-3-45 28 0 36 25 23 41 24 22 2 38 4 38-29-2-36-26-20-34-23z m357 59c0 138-56 262-146 353l0 0 0 0c-92 90-216 147-354 147s-262-57-352-147l0 0 0 0c-91-91-148-215-148-353 0-138 56-262 146-353l2-1c90-90 214-146 354-146 137 0 262 56 354 146l0 0c88 92 144 216 144 354z m-175-320l0 0c-84-82-199-131-325-131-126 0-241 51-325 133l-1 2c-82 82-133 193-133 318 0 124 51 237 134 318l0 0c84 82 199 131 325 131s241-51 325-131l0 0c83-82 134-194 134-318s-51-240-134-322l0 0z" horiz-adv-x="1000" />

<glyph glyph-name="lock" unicode="&#xe83a;" d="M640 476q20 0 40-19t20-41l0-390q0-48-48-66l-60-18q-42-16-96-16l-290 0q-56 0-98 16l-60 18q-48 18-48 66l0 390q0 22 15 41t35 19l100 0 0 70q0 110 51 170t149 60 149-60 51-170l0-70 90 0z m-390 90l0-90 200 0 0 90q0 52-27 81t-73 29-73-29-27-81z" horiz-adv-x="700" />

<glyph glyph-name="ingresso-enem" unicode="&#xe83b;" d="M494 450h-168c-9 0-17-7-17-17 0-9 7-17 17-17h168c9 0 17 7 17 17 0 10-8 17-17 17z m-98-118c10 0 17 8 17 18 0 9-7 17-17 17h-70c-9 0-17-8-17-17 0-10 8-18 17-18h70z m-235 25c4-3 8-5 13-5h0c4 0 9 2 12 5l44 44c7 7 7 18 0 25-7 6-18 6-24 0l-32-32-17 17c-7 7-18 7-25 0-6-7-6-18 0-24l29-30z m104 135h-168c-9 0-17-7-17-17v-167c0-10 8-17 17-17h168c9 0 17 7 17 17v167c0 9-8 17-17 17z m-18-167h-133v133h133v-133z m247-131h-168c-9 0-17-7-17-17 0-9 7-17 17-17h168c9 0 17 8 17 17 0 10-8 17-17 17z m-98-83h-70c-9 0-17-8-17-17 0-10 8-18 17-18h70c10 0 17 8 17 18 0 9-7 17-17 17z m-131 125h-168c-9 0-17-7-17-17v-167c0-10 8-17 17-17h168c9 0 17 7 17 17v167c0 10-8 17-17 17z m-18-167h-133v133h133v-133z m241 680h-385c-56 0-102-45-102-101v-596c0-56 46-101 102-101h385c56 0 102 45 102 101v596c0 56-46 101-102 101z m62-697c0-34-28-61-62-61h-385c-34 0-62 27-62 61v596c0 34 28 61 62 61h385c34 0 62-27 62-61v-596z m308 698c-78 0-141-63-141-141v-3-40-401-40-28l113-133c8-9 19-14 30-14 0 0 1 0 1 0 12 0 22 6 30 15l108 139v21 40 401 40 3c0 78-63 141-141 141z m101-633l-99-126-103 121v12h202v-7z m0 48h-202v401h202v-401z m-202 441v3c0 56 46 101 101 101s101-45 101-101v-3h-202z" horiz-adv-x="1000" />

<glyph glyph-name="plus-circled" unicode="&#xe83c;" d="M679 314v72q0 14-11 25t-25 10h-143v143q0 15-11 25t-25 11h-71q-15 0-25-11t-11-25v-143h-143q-14 0-25-10t-10-25v-72q0-14 10-25t25-10h143v-143q0-15 11-25t25-11h71q15 0 25 11t11 25v143h143q14 0 25 10t11 25z m178 36q0-117-57-215t-156-156-215-58-216 58-155 156-58 215 58 215 155 156 216 58 215-58 156-156 57-215z" horiz-adv-x="857.1" />

<glyph glyph-name="minus-circled" unicode="&#xe83d;" d="M679 314v72q0 14-11 25t-25 10h-429q-14 0-25-10t-10-25v-72q0-14 10-25t25-10h429q14 0 25 10t11 25z m178 36q0-117-57-215t-156-156-215-58-216 58-155 156-58 215 58 215 155 156 216 58 215-58 156-156 57-215z" horiz-adv-x="857.1" />

<glyph glyph-name="ingresso-historico" unicode="&#xe83e;" d="M898 750h-796c-56 0-102-45-102-102v-596c0-57 46-102 102-102h796c56 0 102 45 102 102v596c0 57-46 102-102 102z m62-698c0-34-28-62-62-62h-796c-34 0-62 28-62 62v596c0 34 28 62 62 62h796c34 0 62-28 62-62v-596z m-440 232h-40-143-223v-173h223 143 40 183 183v173h-183-183z m0-133v93h143v-93h-143z m326 93v-93h-143v93h143z m-366 345h-143-223v-174h223 143 223 183v174h-183-223z m366-40v-93h-143v93h143z" horiz-adv-x="1000" />

<glyph glyph-name="star-filled" unicode="&#xe83f;" d="M297 498q69 152 114 252 6 15 24 15t23-15l114-252q164-18 274-30 15-3 21-18t-6-27l-204-187q33-161 55-270 3-15-10-25t-27-2l-240 136q-144-81-240-136-15-9-28 2t-11 25l56 270q-122 112-204 187-12 11-6 26t21 19z" horiz-adv-x="869" />

<glyph glyph-name="download-outline" unicode="&#xe840;" d="M936 64l2-261q0-22-16-37t-37-15l-832 0q-22 0-37 15t-16 37q0 261 1 261 0 11 2 16l105 313q12 35 48 35l29 0-35 36q-46 46-46 110t46 110q31 31 76 41t87-3l0 71q0 65 45 110t111 46 110-46 46-110l0-71q41 13 86 3t77-41q46-46 46-110t-46-110l-35-36 28 0q37 0 49-35l105-313q1-5 1-16z m-712 546q-15-15-15-37t15-36l245-244 245 245q15 15 15 36t-15 36-37 15-37-15l-119-118 0 301q0 21-15 37t-37 15-37-15-16-37l0-301-118 118q-17 17-38 17-20 0-36-17z m-30-286l-86-260 723 0-87 260-96 0-179-177-179 177-96 0z m640-469l0 157-730 0 0-157 730 0z" horiz-adv-x="938" />

<glyph glyph-name="barcode" unicode="&#xe841;" d="M0-82l0 864 84 0 0-864-84 0z m123 0l0 864 20 0 0-864-20 0z m70 0l0 864 63 0 0-864-63 0z m92 0l0 864 28 0 0-864-28 0z m104 0l0 864 41 0 0-864-41 0z m56 0l0 864 18 0 0-864-18 0z m61 0l0 864 19 0 0-864-19 0z m45 0l0 864 82 0 0-864-82 0z m111 0l0 864 43 0 0-864-43 0z m102 0l0 864 9 0 0-864-9 0z m25 0l0 864 27 0 0-864-27 0z m68 0l0 864 20 0 0-864-20 0z m61 0l0 864 82 0 0-864-82 0z" horiz-adv-x="1000" />

<glyph glyph-name="inscricao-online" unicode="&#xe842;" d="M898 750h-796c-56 0-102-45-102-102v-596c0-57 46-102 102-102h796c56 0 102 45 102 102v596c0 57-46 102-102 102z m62-698c0-34-28-62-62-62h-796c-34 0-62 28-62 62v596c0 34 28 62 62 62h796c34 0 62-28 62-62v-596z m-543 385h-283c-11 0-20-9-20-21 0-11 9-20 20-20h283c12 0 21 9 21 20-1 12-10 21-21 21z m0-133h-283c-11 0-20-9-20-21s9-20 20-20h283c12 0 21 9 21 20s-10 21-21 21z m403 150c-6 0-12-1-18-3-9 14-25 23-43 23-6 0-12-1-18-3-9 14-25 23-43 23-3 0-7-1-10-1l0 31c0 14-5 27-15 36-9 10-22 15-36 15-28-1-51-24-52-52l0-125-16-15c0 0 0 0 0 0-23-23-36-54-36-86 0-32 12-62 35-84l44-44c29-29 66-44 107-43 40 0 78 16 107 45 28 29 44 67 44 107l1 126c1 28-22 51-51 50z m9-177c0-60-50-110-110-110-29-1-57 10-77 31l-45 44c-15 15-23 35-22 56l0 0c0 13 3 26 9 37l0-27c0-12 9-21 21-21 11 1 20 10 20 21l2 215c0 6 4 10 10 10 2 0 5-1 7-3 2-1 3-4 3-7l-1-133c0-11 9-20 20-20 12 0 21 10 21 21l1 51c0 3 1 5 3 7 0 0 0 0 0 0 2 2 4 3 7 3 2 0 5-1 7-2 1-2 3-5 2-7l0-31c0-6 2-11 6-15 4-3 9-6 15-5 11 0 21 9 21 21l0 10c0 2 1 5 3 7l0 0c2 2 4 3 7 3 5 0 10-4 10-10l-1-20c0-6 2-11 6-15 4-4 9-6 15-6 11 1 21 10 21 21 0 3 1 6 3 8l0 0c2 2 4 3 7 3 5 0 10-5 10-10l-1-127z" horiz-adv-x="1000" />

<glyph glyph-name="prova-vestibular" unicode="&#xe843;" d="M488 750h-386c-56 0-102-45-102-102v-596c0-57 46-102 102-102h386c56 0 102 45 102 102v596c0 57-46 102-102 102z m62-698c0-34-28-62-62-62h-386c-34 0-62 28-62 62v596c0 34 28 62 62 62h386c34 0 62-28 62-62v-596z m-113 451h-284c-11 0-20-9-20-20s9-20 20-20h284c11 0 20 9 20 20s-9 20-20 20z m0-133h-284c-11 0-20-9-20-20 0-11 9-20 20-20h284c11 0 20 9 20 20 0 11-9 20-20 20z m0-133h-284c-11 0-20-9-20-20 0-11 9-20 20-20h284c11 0 20 9 20 20 0 11-9 20-20 20z m422 514c-78 0-141-63-141-141v-4-40-402-40-28l113-133c8-9 18-14 30-14 0 0 0 0 1 0 11 0 22 5 29 15l109 139v21 40 402 40 4c0 78-63 141-141 141z m101-634l-99-127-103 121v13h202v-7z m0 47h-202v402h202v-402z m0 442h-202v4c0 56 45 101 101 101s101-45 101-101v-4z" horiz-adv-x="1000" />

<glyph glyph-name="mobile" unicode="&#xe844;" d="M480 840q42 0 71-29t29-71l0-780q0-40-29-70t-71-30l-380 0q-40 0-70 30t-30 70l0 780q0 42 30 71t70 29l380 0z m-190-940q30 0 50 15t20 35q0 22-20 36t-50 14q-28 0-49-15t-21-35 21-35 49-15z m210 150l0 660-420 0 0-660 420 0z" horiz-adv-x="580" />

<glyph glyph-name="clock" unicode="&#xe845;" d="M460 810q190 0 325-135t135-325-135-325-325-135-325 135-135 325 135 325 325 135z m0-820q150 0 255 106t105 254q0 150-105 255t-255 105q-148 0-254-105t-106-255q0-148 106-254t254-106z m36 620l0-244 150-150-50-50-170 170 0 274 70 0z" horiz-adv-x="920" />

<glyph glyph-name="monitor" unicode="&#xe846;" d="M900 790q42 0 71-30t29-70l0-550q0-42-29-77t-69-43l-218-44 86-38q50-28-20-28l-500 0q-98 0 32 52l36 14-220 44q-40 8-69 43t-29 77l0 550q0 40 30 70t70 30l800 0z m0-646l0 556-800 0 0-556 800 0z" horiz-adv-x="1000" />

<glyph glyph-name="remanescentes-medicina" unicode="&#xe847;" d="M615 555c11 0 20 9 20 20 0 11-9 20-20 20h-45c-11 0-20-9-20-20v-95c0-68 50-124 115-134v-141c0-55 45-100 101-100s100 45 100 100v16c11 6 19 19 19 33 0 22-18 39-39 39-22 0-39-17-39-39 0-14 7-27 19-33v-16c0-33-27-60-61-60s-60 27-60 60v141c65 10 115 66 115 134v95c0 11-9 20-20 20h-44c-11 0-20-9-20-20 0-11 9-20 20-20h24v-75c0-53-42-95-95-95-52 0-95 42-95 95v75h25z m-615-205c0-11 9-20 21-20h234l-59-60c-8-7-8-20 0-28 4-4 9-6 14-6 5 0 10 2 14 6l108 108-108 108c-8 8-20 8-28 0-8-8-8-21 0-28l59-60h-234c-12 0-21-9-21-20z m937 399h-873c-35 0-63-28-63-63v-218c0-11 9-19 19-19 11 0 20 8 20 19v219c0 13 11 24 24 24h873c13 0 24-11 24-24v-673c0-14-11-25-24-25h-873c-13 0-24 11-24 25v218c0 10-9 19-20 19-10 0-19-8-19-19v-219c0-34 28-63 63-63h873c34 0 63 29 63 63v674c0 34-29 62-63 62z" horiz-adv-x="1000" />

<glyph glyph-name="compartilhar" unicode="&#xe848;" d="M779 208c-57 0-108-28-141-70l-245 163c4 16 6 32 6 49s-2 33-6 49l245 163c33-42 84-70 141-70 99 0 179 81 179 179 0 99-80 179-179 179s-178-80-178-179c0-18 2-35 7-52l-244-162c-33 44-85 72-143 72-99 0-179-80-179-179 0-99 80-179 179-179 58 0 110 28 143 72l244-162c-5-17-7-34-7-52 0-99 80-179 178-179s179 80 179 179c0 98-80 179-179 179z m0 578c64 0 115-52 115-115 0-63-51-114-115-114s-114 51-114 114c0 63 51 115 114 115z m-558-551c-64 0-115 52-115 115 0 63 51 115 115 115s114-52 114-115c0-63-51-115-114-115z m558-321c-63 0-114 52-114 115 0 63 51 114 114 114s115-51 115-114c0-63-51-115-115-115z" horiz-adv-x="1000" />

<glyph glyph-name="seta-baixo" unicode="&#xe849;" d="M449 821c-5-9-7-18-8-29l1-739-255 255c-24 23-62 23-85 0-23-23-23-61 0-85l356-356c11-11 26-17 42-17 16 0 31 6 42 17l356 356c12 12 18 27 18 43 0 15-6 30-18 42-23 23-61 23-84 0l-255-255 0 737c0 33-26 59-58 60-22 0-41-11-52-29z" horiz-adv-x="1000" />

<glyph glyph-name="link" unicode="&#xe84a;" d="M589 261c9 10 9 25 0 34s-25 10-34 0c-61-61-161-61-223 0l-238 239c-30 29-46 69-46 111 0 42 16 81 46 111s69 46 111 46c42 0 82-16 111-46l204-204c10-9 25-9 34 0 10 10 10 25 0 34l-204 204c-38 39-90 60-145 60-55 0-106-21-145-60-39-39-60-90-60-145 0-55 21-107 60-145l239-239c40-40 92-60 145-60 52 0 105 20 145 60z m351-61l-238 239c-80 80-211 80-291 0-9-10-9-25 0-34 10-10 25-10 34 0 62 61 161 61 223 0l238-239c30-29 46-69 46-111 0-42-16-81-46-111-61-61-161-61-222 0l-204 204c-9 9-25 9-34 0s-9-25 0-34l204-204c40-40 92-60 145-60 52 0 105 20 145 60 39 39 60 90 60 145 0 55-21 107-60 145z" horiz-adv-x="1000" />

<glyph glyph-name="contato-1" unicode="&#xe84b;" d="M735 524h-470c-18 0-33-15-33-33s15-34 33-34h470c18 0 33 15 33 34s-15 33-33 33z m0-169h-470c-18 0-33-14-33-33s15-33 33-33h470c18 0 33 14 33 33s-15 33-33 33z m226 232c0 8-1 15-2 22-10 77-75 133-153 133l-229 0-164 0c-72 0-145 0-218 0 0 0 0 0 0 0-37 0-70-11-98-34-37-31-57-69-57-113-1-96-1-195-1-290 0-28 0-56 0-84 0-24 6-47 18-68 29-54 77-82 138-83 76-1 152 0 226 0l56 0c26-27 54-54 80-81l18-18c6-5 14-12 26-12 0 0 0 0 0 0 12 0 21 7 26 12l37 37c21 21 41 41 62 63 15 0 31 0 47 0h21c11 0 24 0 37 2 72 10 129 76 129 150 1 120 1 242 1 364z m-64-362c0-46-33-83-78-90-4 0-9 0-15 0-27 0-57 0-87 0-11 0-20-4-28-12-16-16-32-32-47-47-13-13-27-27-40-40-12 12-25 25-37 37-16 16-32 32-48 48-9 9-19 13-31 13 0 0 0 0 0 0-85 0-177 0-289 0-43 0-78 26-89 66-2 8-3 16-3 25 0 34 0 68 0 102 0 86 0 176 0 265 0 36 24 68 60 81 10 3 20 4 32 4 0 0 0 0 0 0 76 0 152 0 228 0h75c29 0 59 0 88 0 71 0 145 0 217 0 37 0 64-16 82-49 6-12 10-26 10-43 0-130 0-248 0-360z" horiz-adv-x="1000" />

<glyph glyph-name="atendimento" unicode="&#xe84c;" d="M500 740c-215 0-390-175-390-390s175-390 390-390 390 175 390 390-175 390-390 390z m0-710c-177 0-320 144-320 320 0 177 144 320 320 320s320-144 320-320c0-177-143-320-320-320z m32 332v175c0 20-17 37-37 37s-36-17-36-37v-192c0 0 0-1 0-2 0 0 0 0 0 0 0-2 0-4 0-6 0 0 0-1 0-1 1-2 2-4 2-6 0 0 0-1 1-1 1-2 2-3 3-5 0 0 1-1 1-1 1-2 3-3 5-4 0 0 0 0 0-1l164-143c6-6 15-10 24-10 10 0 20 4 27 13 13 15 12 39-3 52l-151 132z" horiz-adv-x="1000" />

<glyph glyph-name="pencil" unicode="&#xe84d;" d="M938 605q22-22 22-55t-22-55l-570-570q-22-21-60-38t-73-17l-235 0 0 234q0 35 17 74t38 60l570 570q23 22 55 22t55-22z m-794-426l65-64 431 433-64 63z m91-205q14 0 33 8-10 10-27 26t-50 50-56 56l-22 22q-9-21-9-32l0-78 52-52 79 0z m74 40l432 432-63 64-433-431z m469 469l67 67-165 165-67-66z" horiz-adv-x="960" />

<glyph glyph-name="plus-circle" unicode="&#xe84e;" d="M1000 349q0-136-67-251t-182-182-251-67-251 67-182 182-67 251 67 251 182 182 251 67 251-67 182-182 67-251z m-440-58h235v118h-235v235h-118v-235h-236v-118h236v-236h118v236z" horiz-adv-x="1000" />

<glyph glyph-name="ok" unicode="&#xe84f;" d="M1179 778q-250-222-600-750l-115-179q-144 180-464 500l107 107 286-250q150 150 279 272t206 187 131 111 77 59l21 14q4 0 11-2t26-19 35-50z" horiz-adv-x="1179" />

<glyph glyph-name="calendar-inv" unicode="&#xe850;" d="M744 685l167 0 0-782-893 0 0 782 168 0 0-56q0-46 33-79t79-33 78 33 33 79l0 56 112 0 0-56q0-46 33-79t79-33 78 33 33 79l0 56z m-446-669l0 111-112 0 0-111 112 0z m0 223l0 112-112 0 0-112 112 0z m223-223l0 111-112 0 0-111 112 0z m0 223l0 112-112 0 0-112 112 0z m111-223l112 111-112 0 0-111z m112 223l0 112-112 0 0-112 112 0z m-503 391l0 112q0 23 17 39t40 16 40-16 15-39l0-112q0-24-16-40t-39-16q-24 0-40 16t-17 40z m335 0l0 112q0 23 16 39t40 16q23 0 40-16t16-39l0-112q0-24-16-40t-39-16-40 16-17 40z" horiz-adv-x="928" />

<glyph glyph-name="arrow-left" unicode="&#xe851;" d="M736-150c-7 0-14 3-20 8l-472 472c-5 5-8 13-8 20 0 7 3 15 8 20l472 472c11 11 29 11 40 0 11-11 11-29 0-40l-452-452 452-452c11-11 11-29 0-40-6-5-13-8-20-8z" horiz-adv-x="1000" />

<glyph glyph-name="plus-circled-1" unicode="&#xe852;" d="M0 350q0 117 58 215t155 156 216 58 215-58 156-156 57-215-57-215-156-156-215-58-216 58-155 156-58 215z m179-36q0-14 10-25t25-10h143v-143q0-15 11-25t25-11h71q15 0 25 11t11 25v143h143q14 0 25 10t11 25v72q0 14-11 25t-25 10h-143v143q0 15-11 25t-25 11h-71q-15 0-25-11t-11-25v-143h-143q-14 0-25-10t-10-25v-72z" horiz-adv-x="857.1" />

<glyph glyph-name="instagram-1" unicode="&#xe853;" d="M749 849h-498c-138 0-249-111-249-248v-502c0-137 111-248 249-248h498c138 0 250 111 250 248v502c0 136-112 248-250 248z m157-750c0-86-70-156-157-156h-498c-87 0-157 70-157 156v324h197c-14-30-23-64-23-100 0-130 107-236 237-236 131 0 237 106 237 236 0 36-8 70-23 100h187v-324z m-499 224c0 54 44 98 98 98 54 0 98-44 98-98 0-54-44-98-98-98-54 0-98 44-98 98z m499 192h-264c-39 28-86 44-137 44-51 0-98-16-137-44h-274v86c0 86 70 156 157 156h498c87 0 157-70 157-156v-86h0z m-100 186h-85c-15 0-28-12-28-27v-86c0-15 13-27 28-27h85c16 0 28 12 28 27v86c0 15-12 27-28 27z" horiz-adv-x="1000" />

<glyph glyph-name="tourvirtual" unicode="&#xe854;" d="M387 566l132-70 12-146-133 67-11 149 0 0z m-63 105c-124-77-117-195-119-211 0-45 15-91 41-132 26-41 61-67 103-91 130-84 395-209 395-209 0 2-23 302-40 440-2 24-3 40-9 60-1 2-1 4-2 5 0 1 0 1 0 1-6 20-15 40-27 58-72 117-225 151-342 79l0 0z m237-377l0 0c-93-58-215-30-273 63-58 92-30 215 63 273 92 58 215 30 273-63 58-93 30-215-63-273l0 0z m-335 407l-58 88 21 12 82-35-39 59 20 10 58-88-21-12-81 34 38-57-20-11z m547-825l20 14c5-6 10-8 16-9s11 1 18 4c7 4 11 8 13 13 2 4 2 8 0 11-2 2-4 3-6 4-3 1-6 1-10 0-3-1-10-3-20-6-13-4-23-5-30-4-10 1-17 5-21 12-3 4-5 9-4 15s3 11 7 16c5 5 11 10 19 15 13 7 25 10 35 9 10-1 17-6 23-14l-21-12c-4 4-8 6-12 6-4 1-9-1-15-4-7-3-11-7-13-11-1-3-1-5 0-8 2-2 4-3 7-3 4-1 12 1 23 5 12 3 21 5 28 6 6 1 12 0 17-3 6-2 10-6 14-11 3-5 5-11 4-17 0-6-3-12-8-18-4-5-11-11-21-16-13-7-25-10-35-9-11 1-20 6-28 15z m33 672c-6 9-9 17-10 25-1 6 0 12 2 18 1 6 4 11 8 15 5 6 12 12 21 16 15 9 30 12 45 9 15-3 27-12 36-26 10-14 12-28 8-41-4-13-13-24-29-33-16-8-31-11-45-8-15 3-27 11-36 25z m21 13c7-10 15-16 24-18 9-2 17-1 26 3 8 5 14 12 16 20 2 8 0 17-7 27-7 10-15 16-23 18-9 3-17 1-26-4-9-5-14-11-16-19-3-8 0-17 6-27z m-667-503l-58 88 21 12 48-73 53 29 10-15-74-41z" horiz-adv-x="1000" />

<glyph glyph-name="arrow-left-circle" unicode="&#xe855;" d="M500 850c-276 0-500-224-500-500s224-500 500-500 500 224 500 500-224 500-500 500z m0-971c-260 0-471 211-471 471s211 471 471 471 471-211 471-471-211-471-471-471z m76 658c-6 6-15 6-21 0l-177-177c-5-5-5-15 0-20l177-177c3-3 7-4 10-4 4 0 8 1 11 4 5 5 5 15 0 20l-167 167 167 167c5 5 5 14 0 20z" horiz-adv-x="1000" />

<glyph glyph-name="enviar-email" unicode="&#xe856;" d="M247 4c-24 2-38 14-47 34-24 51-48 101-72 152-27 58-53 115-79 173-6 12-12 25-15 38-5 28 7 48 33 59 84 40 169 79 253 119 78 36 156 73 234 109 29 14 58 27 87 40 24 11 55 0 66-25 34-72 67-144 100-216 22-45 43-91 65-136 16-33 2-62-35-79-69-31-138-63-207-95-78-36-157-73-236-109-40-19-80-38-121-57-8-3-17-4-26-7l0 0z m214 336l0 0c3 2 9 4 11 7 15 31 30 62 45 93 31 65 63 131 95 197 3 6 5 12 8 19-6-2-12-4-18-7-52-24-104-48-156-72-67-31-134-63-202-94-38-17-76-35-114-52-1-1-3-3-3-4 0-2 2-4 4-4 11-3 22-5 32-8 24-6 47-11 70-17 25-7 50-13 75-20 26-7 53-13 79-20 24-6 48-11 74-18l0 0z m-58-44l0 0c-3-2-10-3-12-7-36-68-71-136-106-204-2-3-2-8-2-11 3 0 7 0 10 2 45 21 91 42 136 63 67 32 133 64 200 95 51 24 102 47 153 71 2 1 5 4 5 6 0 2-4 4-6 5-7 1-15 1-23 2-44 10-88 20-132 30-16 4-32 8-48 13-29 8-32 7-46-20-3-6-6-11-9-17-20-35-37-43-76-37-14 2-28 6-44 9l0 0z m-291 76l0 0c-1-2-6-7-5-9 15-32 30-64 45-96 24-51 47-102 71-152 2-3 5-6 7-8 3 2 6 5 8 8 14 29 28 59 42 88 16 34 33 68 49 102 1 3 0 11-2 11-19 6-39 11-59 16-26 7-51 13-77 19-25 7-50 13-79 21l0 0z m680 0l0 0c-1-1 4 0 4 1 0 4 0 9-2 13-21 45-43 91-64 136-17 35-32 71-48 106-2 3-5 4-7 6-2-2-4-4-6-6-8-18-16-36-25-54-22-46-45-93-68-140-1-2 1-9 3-9 22-6 44-11 66-17 26-6 52-13 77-20 22-5 45-10 70-16l0 0z m-52-358c-64 0-128 0-192 0-20 0-35 12-35 29 0 16 14 28 34 28 129 1 258 1 387 1 21 0 32-10 32-28 0-21-10-31-33-31-64 0-129 0-193 0 0 0 0 0 0 1l0 0z m102 177c31 0 61 0 92 0 20 0 32-12 32-31 0-18-13-30-32-30-60 0-120 0-180 0-20 0-33 14-33 33 0 16 12 26 32 26 30 0 59 0 89 0 0 1 0 1 0 2l0 0z" horiz-adv-x="1000" />

<glyph glyph-name="zoom-in" unicode="&#xe857;" d="M0 386q0 80 31 152t84 126 125 84 153 31 152-31 126-84 84-126 31-152q0-123-69-223l191-191q21-21 21-51t-21-50-51-21q-30 0-50 21l-191 191q-100-69-223-69-80 0-153 31t-125 83-84 126-31 153z m143 0q0-103 73-177t177-73 176 73 74 177-74 176-176 74-177-74-73-176z m71-18v36q0 7 6 12t12 5h125v125q0 8 5 13t13 5h36q7 0 12-5t6-13v-125h125q7 0 12-5t5-12v-36q0-7-5-13t-12-5h-125v-125q0-7-6-13t-12-5h-36q-7 0-13 5t-5 13v125h-125q-7 0-12 5t-6 13z" horiz-adv-x="928.6" />

<glyph glyph-name="arrow-right" unicode="&#xe858;" d="M264-150c-7 0-14 3-20 8-11 11-11 29 0 40l452 452-452 452c-11 11-11 29 0 40 11 11 29 11 40 0l472-472c5-5 8-12 8-20 0-7-3-14-8-20l-472-472c-6-5-13-8-20-8z" horiz-adv-x="1000" />

<glyph glyph-name="right-circle" unicode="&#xe859;" d="M1000 349q0-136-67-251t-182-182-251-67-251 67-182 182-67 251 67 251 182 182 251 67 251-67 182-182 67-251z m-547-232l233 232-233 232-71-71 161-161-161-161z" horiz-adv-x="1000" />

<glyph glyph-name="arrow-right-circle" unicode="&#xe85a;" d="M500 850c-276 0-500-224-500-500s224-500 500-500 500 224 500 500-224 500-500 500z m0-971c-260 0-471 211-471 471s211 471 471 471 471-211 471-471-211-471-471-471z m-55 658c-6 6-15 6-21 0-5-5-5-15 0-20l167-167-167-167c-5-5-5-14 0-20 3-3 7-4 10-4s8 1 11 4l177 177c5 6 5 15 0 20l-177 177z" horiz-adv-x="1000" />

<glyph glyph-name="calendar-3" unicode="&#xe85b;" d="M926 734h-178v70c0 25-20 46-46 46-25 0-46-21-46-46v-70h-312v70c0 25-21 46-46 46s-46-21-46-46v-70h-178c-25 0-46-20-46-46v-792c0-25 21-46 46-46h852c25 0 46 21 46 46v792c0 26-21 46-46 46z m-46-792h-760v700h132v-94c0-25 20-46 46-46s46 21 46 46v94h312v-94c0-25 20-46 46-46 25 0 46 21 46 46v94h132v-700z m-582 426c-26 0-47-21-47-46 0-25 21-46 47-46 26 0 47 21 47 46 0 25-21 46-47 46z m202 0c-26 0-47-21-47-46 0-25 21-46 47-46s47 21 47 46c0 25-21 46-47 46z m201 0c-26 0-48-21-48-46 0-25 22-46 48-46s47 21 47 46c0 25-21 46-47 46z m-403-220c-26 0-47-20-47-46 0-25 21-45 47-45 26 0 47 20 47 45 0 26-21 46-47 46z m202 0c-26 0-47-20-47-46 0-25 21-45 47-45s47 20 47 45c0 26-21 46-47 46z m201 0c-26 0-48-20-48-46 0-25 22-45 48-45s47 20 47 45c0 26-21 46-47 46z" horiz-adv-x="1000" />

<glyph glyph-name="calendario-acad" unicode="&#xe85c;" d="M741 625h-55v71c0 9-8 17-18 17-9 0-17-8-17-17v-71h-302v71c0 9-8 17-17 17s-18-8-18-17v-71h-55c-56 0-101-45-101-101v-77-359c0-56 46-101 101-101h482c56 0 101 45 101 101v12 111 236 77c0 56-46 101-101 101z m-548-101c0 37 30 66 66 66h55v-54c0-10 8-17 18-17s17 7 17 17v54h302v-54c0-10 8-17 18-17 9 0 17 7 17 17v54h55c37 0 66-30 66-66v-42h-614v42z m614-313v-111-12c0-37-30-67-66-67h-482c-36 0-66 30-66 67v359h614v-236z m-500 136c9 0 17 8 17 17 0 4-1 8-4 11-3 4-8 7-13 7-10 0-17-8-17-18 0-4 1-9 4-12 4-3 8-5 13-5z m96 0c10 0 18 8 18 17 0 4-2 8-4 11-3 4-8 7-14 7-9 0-17-8-17-18 0-4 2-9 5-12 3-3 8-5 12-5z m97 0c10 0 17 8 17 17 0 4-1 8-3 11-4 4-9 7-14 7-10 0-17-8-17-18 0-4 1-9 5-12 3-3 7-5 12-5z m97 0c9 0 17 8 17 17 0 4-1 8-4 11-3 4-8 7-13 7-10 0-18-8-18-18 0-4 2-9 5-12 3-3 8-5 13-5z m96 0c10 0 17 8 17 17 0 4-1 8-3 11-3 4-8 7-14 7-9 0-17-8-17-18 0-4 2-9 5-12 3-3 7-5 12-5z m-386-87c9 0 17 8 17 18 0 4-1 8-4 11-3 4-8 6-13 6-10 0-17-8-17-17 0-5 1-9 4-13 4-3 8-5 13-5z m96 0c10 0 18 8 18 18 0 4-2 8-4 11-3 4-8 6-14 6-9 0-17-8-17-17 0-5 2-9 5-13 3-3 8-5 12-5z m97 0c10 0 17 8 17 18 0 4-1 8-3 11-4 4-9 6-14 6-10 0-17-8-17-17 0-5 1-9 5-13 3-3 7-5 12-5z m97 0c9 0 17 8 17 18 0 4-1 8-4 11-3 4-8 6-13 6-10 0-18-8-18-17 0-5 2-9 5-13 3-3 8-5 13-5z m96 0c10 0 17 8 17 18 0 4-1 8-3 11-3 4-8 6-14 6-9 0-17-8-17-17 0-5 2-9 5-13 3-3 7-5 12-5z m-386-86c9 0 17 8 17 17 0 4-1 8-4 11-3 4-8 7-13 7-10 0-17-8-17-18 0-4 1-9 4-12 4-3 8-5 13-5z m96 0c10 0 18 8 18 17 0 4-2 8-4 11-3 4-8 7-14 7-9 0-17-8-17-18 0-4 2-9 5-12 3-3 8-5 12-5z m97 0c10 0 17 8 17 17 0 4-1 8-3 11-4 4-9 7-14 7-10 0-17-8-17-18 0-4 1-9 5-12 3-3 7-5 12-5z m97 0c9 0 17 8 17 17 0 4-1 8-4 11-3 4-8 7-13 7-10 0-18-8-18-18 0-4 2-9 5-12 3-3 8-5 13-5z m96 0c10 0 17 8 17 17 0 4-1 8-3 11-3 4-8 7-14 7-9 0-17-8-17-18 0-4 2-9 5-12 3-3 7-5 12-5z m-386-87c9 0 17 8 17 18 0 4-1 8-4 11-3 4-8 6-13 6-10 0-17-8-17-17 0-5 1-9 4-13 4-3 8-5 13-5z m96 0c10 0 18 8 18 18 0 4-2 8-4 11-3 4-8 6-14 6-9 0-17-8-17-17 0-5 2-9 5-13 3-3 8-5 12-5z m97 0c10 0 17 8 17 18 0 4-1 8-3 11-4 4-9 6-14 6-10 0-17-8-17-17 0-5 1-9 5-13 3-3 7-5 12-5z m97 0c9 0 17 8 17 18 0 4-1 8-4 11-3 4-8 6-13 6-10 0-18-8-18-17 0-5 2-9 5-13 3-3 8-5 13-5z m96 0c10 0 17 8 17 18 0 4-1 8-3 11-3 4-8 6-14 6-9 0-17-8-17-17 0-5 2-9 5-13 3-3 7-5 12-5z" horiz-adv-x="1000" />

<glyph glyph-name="evento" unicode="&#xe85d;" d="M489 195h22c78 0 141 63 141 140v238c0 77-63 140-141 140h-22c-78 0-141-63-141-140v-238c1-77 63-140 141-140z m-47 472v-49c0-9 8-17 17-17 10 0 18 8 18 17v60c4 0 8 0 12 0h22c5 0 9 0 13 0v-60c0-9 7-17 17-17 10 0 17 8 17 17v49c35-17 59-53 59-94v-46h-59c-10 0-18-8-18-18s8-17 18-17h59v-47h-59c-10 0-18-8-18-17s8-18 18-18h59v-47h-59c-10 0-18-7-18-17s8-17 18-17h59c-3-56-49-100-105-100h-23c-56 0-102 44-105 100h59c10 0 18 7 18 17s-8 17-18 17h-59v47h59c10 0 18 8 18 18s-8 17-18 17h-59v47h59c10 0 18 8 18 17s-8 18-18 18h-59v46c-1 41 23 77 58 94z m279-200c-10 0-18-8-18-18v-109c0-108-91-196-203-196s-202 88-202 196l-1 109c0 10-8 17-18 17 0 0 0 0 0 0-9 0-17-8-17-17l1-109c0-122 97-221 219-230v-88h-90c-9 0-17-8-17-18s8-17 17-17h215c10 0 18 8 18 17s-8 18-18 18h-90v88c123 8 221 108 221 230v109c0 10-8 18-17 18z" horiz-adv-x="1000" />

<glyph glyph-name="leaf" unicode="&#xe85e;" d="M0 60q0 20 17 41t38 37 38 31 18 27q0 2-8 21t-9 25q-5 28-5 58 0 64 24 123t66 103 96 77 113 53q31 10 81 15t100 5 100 3 91 13 64 32l16 16t17 16 15 11 20 9 24 3q22 0 40-26t26-63 14-69 4-53q0-53-11-108-26-125-103-214t-200-149q-119-61-244-61-83 0-160 27-8 2-49 23t-53 21q-9 0-22-18t-25-39-30-39-33-18q-17 0-29 6t-17 13-15 24q-1 2-3 6t-3 6-2 5-1 7z m214 183q0-15 11-25t25-11q13 0 25 11 15 13 41 39t38 37q76 69 150 98t175 29q14 0 25 11t10 25-10 25-25 11q-96 0-178-28t-145-75-131-122q-11-12-11-25z" horiz-adv-x="1000" />

<glyph glyph-name="evento-fora-campus" unicode="&#xe85f;" d="M711 149c0 0 0 1 0 1 0 1 1 1 1 2 0 0 0 1 0 1 0 1 0 2 0 2 0 1 0 1 0 1v540c0 0 0 0 0 0 0 1 0 1 0 2 0 1 0 1 0 2 0 0 0 1-1 1 0 1 0 1 0 2 0 0-1 1-1 1 0 1-1 1-1 2 0 0 0 0 0 0-1 0-1 1-1 1 0 0-1 1-1 1-1 1-1 1-1 1-1 1-1 1-2 1 0 1-1 1-1 1-1 0-1 1-2 1 0 0-1 0-1 0-1 1-1 1-2 1-1 0-1 0-2 0 0 0 0 0-1 0h-387c-10 0-17-8-17-17v-104c0-10 7-17 17-17s17 7 17 17v86h320l-154-121c-4-3-7-8-7-13v-370h-158v86c0 9-8 17-18 17s-17-8-17-17v-104c0-9 8-17 17-17h176v-135c0-6 4-12 10-15 3-2 5-2 8-2 4 0 7 1 11 4l193 152c0 0 1 0 1 0 0 1 1 1 1 1 1 1 1 1 1 2 1 0 1 1 1 1 0 1 0 1 1 2z m-192 386l159 125v-495l-159-125v495z m-223-201c3-3 8-5 12-5s9 2 12 5l79 80c0 0 0 0 1 0 0 1 1 1 2 2 0 1 0 1 0 2 1 0 1 1 1 1 0 1 1 2 1 2 0 1 0 1 0 2 1 2 1 4 0 6 0 1 0 1 0 2 0 0-1 1-1 2 0 0 0 1-1 1 0 1 0 1 0 2-1 0-2 1-2 2 0 0 0 0-1 0l-79 80c-7 6-18 6-24 0-7-7-7-18 0-25l49-50h-157c-10 0-17-7-17-17s7-17 17-17h157l-49-50c-7-7-7-18 0-25z" horiz-adv-x="1000" />

<glyph glyph-name="publicacoes" unicode="&#xe860;" d="M720 843l3-659-392 0c-38 0-80 5-116-6-23-7-41-20-53-39-9-17-13-35-11-53 2-29 18-61 44-77 17-10 35-15 54-18 35-5 71-3 105-3l435 0v726h49l1-774h-583c-63 0-135 33-153 97-6 25-6 52-8 80 0 177 5 656 5 656s-2 66 62 67c64 3 558 3 558 3l0 0z m-2-734l0-39-454-2c-23 0-28 10-28 21 0 10 5 22 28 22l454-2 0 0z m-441-16c0-71-2-138-2-209 0-27 9-21 30-5 46 37 36 38 82 4 20-15 25-18 25 8l3 205-138-3 0 0z" horiz-adv-x="1000" />

<glyph glyph-name="exposicao" unicode="&#xe861;" d="M384 382h234c9 0 17 8 17 18v296c0 9-8 17-17 17h-234c-10 0-18-8-18-17v-296c0-10 8-18 18-18z m17 296h199v-261h-199v261z m471-437c-72 0-156 32-168 121v22c0 9-7 17-17 17 0 0 0 0-1 0 0 0 0 0-1 0-9 0-17-8-17-17 0-6 0-11 1-16-9-93-95-127-169-127-78 0-169 38-169 143 0 9-7 17-17 17s-17-8-17-17c0-106-91-143-169-143-10 0-18-8-18-17s8-18 18-18c55 0 106 16 142 46 10 8 19 16 27 26v-257h-33c-10 0-17-8-17-17s7-18 17-18h101c9 0 17 8 17 18s-8 17-17 17h-33v257c7-9 16-18 26-26 36-29 87-45 143-45 56 0 106 16 142 45 10 8 19 17 27 26v-256h-33c-10 0-18-8-18-18s8-17 18-17h101c9 0 17 8 17 17s-8 18-17 18h-33v255c7-9 15-18 24-25 37-29 87-45 143-45 10 0 17 7 17 17s-8 17-17 17z" horiz-adv-x="1000" />

<glyph glyph-name="locacao" unicode="&#xe862;" d="M444 492c4-3 8-5 13-5h152c26-56 82-92 144-92 88 0 160 71 160 159 0 88-72 159-160 159-61 0-116-35-143-90h-153c-5 0-10-2-13-5l-49-52c-7-7-7-18 0-24l49-50z m20 97h158c7 0 13 4 16 11 19 48 64 78 116 78 68 0 124-55 124-124s-56-125-124-125c-52 0-99 33-117 82-3 6-9 11-16 11h-157l-32 32 32 35z m332-88c29 0 53 24 53 53 0 29-24 52-53 52-29 0-52-23-52-52 0-29 23-53 52-53z m0 71c10 0 18-8 18-18 0-10-8-18-18-18-10 0-18 8-18 18 1 10 8 18 18 18z m70-381c-2 7-9 13-17 13h-139c0 0 0 0 0 0 0 0-1 0-1 0 0 0-1 0-1 0 0 0-1 0-1 0 0 0-1-1-1-1 0 0 0 0-1 0 0 0 0 0-1 0 0 0 0 0-1-1 0 0 0 0 0 0 0 0 0 0 0 0l-33-16v96c0 9-8 17-18 17h-138-410c-9 0-17-8-17-17v-278c0-9 8-17 17-17h243 410 138c6 0 11 2 14 7 3 4 5 9 3 15l-46 182z m-231-23l-104-52v148h104v-96z m-513 96h374v-165l-153-77h-221v242z m298-242l102 50 138 70c0 0 0 0 0 0l39 19 35-139h-314z m350 0l-37 147h102l38-147h-103z" horiz-adv-x="1000" />

<glyph glyph-name="download-1" unicode="&#xe863;" d="M714 590q15-15 15-37t-15-36l-245-244-245 244q-15 15-15 36t15 37 36 15q23 0 38-15l118-120 0 349q0 21 16 37t37 16 37-16 15-37l0-349 119 120q14 14 38 14 22 0 36-14z m222-448l2-260q0-22-16-37t-37-16l-832 0q-22 0-37 16t-16 37q0 260 1 260 0 11 2 16l105 312q12 37 48 37l12 0q8-18 18-28l78-76-70 0-86-261 722 0-86 261-70 0 77 76q10 10 19 28l11 0q37 0 49-37l105-312q1-5 1-16z" horiz-adv-x="938" />

<glyph glyph-name="teatro-2" unicode="&#xe864;" d="M415 95c-42 0-76-34-76-76v-15c0-9 8-17 17-17h118c10 0 17 8 17 17v15c0 42-34 76-76 76z m-41-73c1 21 19 39 41 39 22 0 40-18 42-39h-83z m211 73c-42 0-76-34-76-76v-15c0-9 7-17 17-17h118c9 0 17 8 17 17v15c0 42-34 76-76 76z m-42-73c2 21 20 39 42 39 22 0 40-18 41-39h-83z m211 73c-42 0-76-34-76-76v-15c0-9 8-17 18-17h117c10 0 18 8 18 17v15c-1 42-35 76-77 76z m-41-73c1 21 19 39 41 39s40-18 42-39h-83z m-467 73c-42 0-77-34-77-76v-15c0-9 8-17 18-17h117c10 0 18 8 18 17v15c0 42-34 76-76 76z m-42-73c1 21 20 39 42 39s40-18 41-39h-83z m355 91c9 0 17 8 17 17v15c0 42-34 76-76 76s-76-34-76-76v-15c0-9 8-17 17-17h118z m-59 73c22 0 40-17 41-39h-82c1 22 19 39 41 39z m313 527h-626c-10 0-18-8-18-17v-90-424c0-9 8-17 18-17h70c-2-7-3-13-3-20v-15c0-10 8-18 18-18h117c10 0 18 8 18 18v15c0 41-33 74-73 76l-44 134c73 35 150 83 180 177 9-4 19-6 30-6s21 2 31 6c30-95 106-142 180-177l-45-134c-40-2-72-35-72-76v-15c0-10 7-18 17-18h118c9 0 17 8 17 18v15c0 7-1 13-3 20h71c9 0 17 8 17 17v424 90c-1 9-8 17-18 17z m-17-107c0-25-21-45-45-45s-46 20-46 45c0 10-7 17-17 17s-17-7-17-17c0-25-21-45-46-45s-45 20-45 45c0 10-8 17-17 17-10 0-18-7-18-17 0-13-6-26-15-34-1-1-2-1-3-2 0 0 0 0 0 0-1-1-2-2-4-2 0 0 0-1 0-1-1 0-2-1-3-1 0 0 0 0-1-1-1 0-2-1-3-1 0 0 0 0-1 0-1-1-2-1-2-1-1-1-1-1-2-1-1 0-2 0-2 0-1-1-2-1-3-1 0 0-1 0-2 0-1 0-2 0-4 0-1 0-3 0-4 0-1 0-2 0-2 0-1 0-2 0-3 1 0 0-1 0-2 0-1 0-1 0-2 1-1 0-2 0-2 1-1 0-1 0-1 0-1 0-2 1-3 1-1 1-1 1-1 1-1 0-2 1-3 1 0 0 0 1 0 1-1 0-3 1-4 2 0 0 0 0 0 0-1 1-2 1-3 2-9 9-15 21-15 34 0 10-8 17-18 17s-17-7-17-17c0-25-20-45-45-45s-45 20-45 45c0 10-8 17-18 17s-17-7-17-17c0-25-21-45-45-45s-46 20-46 45v72h592v-72z m-424-459h-83c1 10 4 18 10 25 0 0 1 1 1 1 0 0 1 1 2 2 0 0 0 0 1 1 0 0 1 1 1 1 1 1 1 1 2 1 0 1 1 1 1 1 1 1 2 1 2 1 1 1 1 1 1 1 1 0 2 1 3 1 0 0 0 1 0 1 4 1 7 2 11 3 0 0 0 0 0 0 2 0 4 0 6 0 22 0 41-17 42-39z m-111 233c-4-2-8-6-9-11-1-3-2-7 1-12l46-142 0-1c-2 0-4-1-5-3 0 0-1 0-1 0-1-1-3-2-5-3 0 0 0 0-1 0-1-1-2-2-4-3 0-1 0-1-1-1-1-1-2-2-4-4 0 0 0 0-1 0h-73v340c13-9 29-14 45-14 26 0 48 12 63 31 15-19 37-31 63-31 25 0 48 12 62 31 1-1 2-2 2-3-21-86-84-130-178-174z m367-233c1 22 20 39 42 39 2 0 4 0 6 0 0 0 0 0 0 0 4-1 7-2 11-3 0 0 0 0 0 0 1-1 2-1 3-2 0 0 0 0 1 0 0-1 1-1 2-2 0 0 1 0 1-1 1 0 1 0 2-1 0 0 1-1 1-1 1 0 1-1 1-1 1-1 2-1 2-2 0 0 1-1 1-1 6-6 9-15 10-24h-83z m95 53c-1 0-1 0-1 1-2 1-3 2-4 3 0 0-1 0-1 1-1 1-3 2-4 3 0 0-1 0-1 0-2 1-3 2-5 3 0 0 0 0 0 1-2 1-4 2-6 3l47 142c2 5 1 10 1 12-2 5-5 9-10 11-94 44-157 89-178 174 0 1 1 2 2 3 14-19 37-31 62-31s48 12 63 31c14-19 37-31 62-31 17 0 33 5 46 14v-340h-73z" horiz-adv-x="1000" />

<glyph glyph-name="mic" unicode="&#xe865;" d="M0 386v71q0 15 11 25t25 11 25-11 10-25v-71q0-103 74-177t176-73 177 73 73 177v71q0 15 11 25t25 11 25-11 11-25v-71q0-124-82-215t-204-104v-74h143q15 0 25-11t11-25-11-25-25-11h-357q-15 0-25 11t-11 25 11 25 25 11h143v74q-121 13-204 104t-82 215z m143 0v285q0 74 52 127t126 52 127-52 52-127v-285q0-74-52-126t-127-53-126 53-52 126z" horiz-adv-x="642.9" />

<glyph glyph-name="phone-outline" unicode="&#xe866;" d="M964 733q31-31 52-74t27-109-12-137-74-163-149-185q-237-237-454-237-134 0-215 82l-93 92q-46 46-46 111t46 110l83 83q46 46 110 46t110-46l72-71 218 216-73 72q-46 47-46 111t46 111l83 82q45 45 111 45 65 0 110-45z m-324-62q-15-15-15-37t15-37l56-56 157 156-57 56q-15 15-36 15-22 0-37-15z m-521-595l57-56 157 156-58 56q-15 15-36 15t-36-15l-84-82q-15-15-15-37t15-37z m615 62q81 82 130 159t64 133 11 105-17 78-32 47l-156-157 15-15q15-15 15-37t-15-36l-291-292q-15-15-37-15-22 0-37 15l-15 17-156-158q50-50 141-50 174 0 380 206z" horiz-adv-x="1044" />

<glyph glyph-name="aluno" unicode="&#xe867;" d="M701 515h-401c-11 0-20-8-20-19s9-20 20-20h401c11 0 20 9 20 20 0 10-9 19-20 19z m-27-125c0 11-9 20-20 20h-298c-11 0-20-9-20-20s9-20 20-20h298c11 0 20 9 20 20z m236 310h-820c-11 0-19-9-19-20s8-20 19-20h820c11 0 19 9 19 20 0 11-8 20-19 20z m-700-515h-36v421c0 11-9 20-20 20s-19-9-19-20v-441c0-11 8-20 19-20h57c11 0 19 9 19 20s-9 20-20 20z m636 441c-11 0-20-9-20-20v-421h-38c-11 0-20-9-20-20s9-20 20-20h58c11 0 19 9 19 20v441c1 11-8 20-19 20z m-483-499c46 0 83 37 83 83s-37 83-83 83-84-37-84-83 38-83 84-83z m0 127c24 0 44-20 44-44s-20-44-44-44c-24 0-44 20-44 44 0 24 20 44 44 44z m22-133h-44c-56 0-101-45-101-101 0-11 9-20 20-20 11 0 19 9 19 20 0 34 28 61 61 61h45c33 0 61-27 61-61 0-11 9-20 20-20s19 9 19 20c1 56-44 101-100 101z m252 6c46 0 84 37 84 83s-38 83-84 83-83-37-83-83 37-83 83-83z m0 127c24 0 44-20 44-44s-20-44-44-44-44 20-44 44 20 44 44 44z m22-133h-44c-56 0-101-45-101-101 0-11 9-20 20-20s20 9 20 20c0 34 27 61 61 61h44c34 0 61-27 61-61 0-11 9-20 20-20s20 9 20 20c0 56-45 101-101 101z" horiz-adv-x="1000" />

<glyph glyph-name="filtro" unicode="&#xe868;" d="M657 606h-314c-46 0-83-38-83-84v-31-1-1 0c0-7 0-19 4-23l172-189v-165c0-6 3-12 8-15 3-2 6-3 10-3 2 0 5 1 7 2l97 49c6 3 10 9 10 15v122l168 184c4 5 4 14 4 23l0 0v33c0 46-37 84-83 84z m-314-36h313c27 0 49-21 49-48v-27h-410v27c0 27 22 48 48 48z m199-268c-6-6-9-14-9-22v-109l-62-30v137c0 8-3 17-9 23l-145 159h366l-141-158z" horiz-adv-x="1000" />

<glyph glyph-name="docente" unicode="&#xe869;" d="M701 370c0-62 50-112 112-112s112 50 112 112-50 112-112 112c-62 1-112-50-112-112z m185 0c0-40-33-73-73-73s-73 33-73 73 33 73 73 73 73-33 73-73z m-41-126h-32c0 0 0 0-1 0-19-1-72-2-89 0-43 5-74 17-164 67-25 15-54 7-73-18-19-27-12-62 17-87 42-36 123-71 166-89 9-4 19-9 23-11 6-9 10-48 9-85 0-11 8-20 19-21 11 0 20 9 21 20 1 68-8 108-27 120-5 2-13 6-29 13-41 18-118 52-156 83-4 3-21 19-11 33 7 9 15 12 22 8 95-53 130-67 179-73 23-2 86 0 95 0h32c54 0 98-44 98-98v-86c0-11 8-20 19-20s20 9 20 20v86c0 76-62 138-138 138z m-179 252c0 11-9 19-20 19h-400c-11 0-20-8-20-19s9-20 20-20h400c11 0 20 9 20 20z m-364-86c-11 0-20-9-20-20s9-19 20-19h298c11 0 20 8 20 19s-9 20-20 20h-298z m574 270c0 11-9 20-20 20h-819c-11 0-20-9-20-20s9-20 20-20h819c11 0 20 9 20 20z m-425-495h-331v421c0 11-9 20-20 20s-20-9-20-20v-441c0-11 9-20 20-20h351c11 0 20 9 20 20s-9 20-20 20z m360 358v63c0 11-9 20-20 20s-19-9-19-20v-63c0-11 8-19 19-19s20 8 20 19z" horiz-adv-x="1000" />

<glyph glyph-name="passaporte-1" unicode="&#xe86a;" d="M703 88v251a45 45 0 0 1-45 45h-613a44 44 0 0 1-44-44l1-428a45 45 0 0 1 45-45h381a20 20 0 1 1 0 41h-381a5 5 0 0 0-4 4l-2 427a5 5 0 0 0 4 4h613a5 5 0 0 0 5-4v-251a20 20 0 1 1 40 0z m-662 140v577a5 5 0 0 0 4 4h613a5 5 0 0 0 5-4v-575a20 20 0 0 1 40 0v575a45 45 0 0 1-45 45h-613a45 45 0 0 1-45-45l1-469m560-486a39 39 0 0 0-7 0c-13 2-24 11-34 25 0 1 0 1-47 78a23 23 0 0 0 8 32h0a23 23 0 0 0 31-8l46-77a30 30 0 0 1 3-4l131 135a23 23 0 0 0 32-32l-132-136a29 29 0 0 0-2-2c-11-9-21-11-29-11z m-281 252l-2 1 0 1c8 14 20 35 20 57 0 58-29 93-77 94h-8c-48-1-77-36-78-94 0-22 12-43 21-57l-1-1-1-1c-20-13-49-33-49-65a45 45 0 0 1 45-44h133a45 45 0 0 1 45 44c0 32-29 52-48 65z m3-69h-133a5 5 0 0 0-5 4c0 11 19 24 31 32l2 1a40 40 0 0 1 12 55c-10 15-15 27-15 36 1 53 29 54 39 54h6c9 0 38-1 38-54 0-9-4-21-14-36a40 40 0 0 1 12-55l1-1c13-8 31-21 31-32a5 5 0 0 0-5-4z m298 113h-176c-9 0-15 7-15 16s6 17 15 17h176c8 0 15-8 15-17s-7-16-15-16z m0-79h-176c-9 0-15 7-15 16s6 17 15 17h176c8 0 15-8 15-17s-7-16-15-16z m-312-179m163 725a86 86 0 1 1 86-85 86 86 0 0 1-86 85z m0-137a52 52 0 1 0 52 52 52 52 0 0 0-52-52z m-72 289h-186a22 22 0 0 1-22-22v-77a22 22 0 0 1 22-22h186a22 22 0 0 1 22 22v77a22 22 0 0 1-22 22z m-14-92h-160v65h160z m288-15l-127 127a22 22 0 0 1-31 0l-55-55a22 22 0 0 1 0-31l127-127a22 22 0 0 1 31 0l55 55a22 22 0 0 1 0 31z m-72-58l-111 111 46 46 111-111z" horiz-adv-x="731" />

<glyph glyph-name="logo-ods" unicode="&#xe86b;" d="M1104 135l105 255a890 890 0 0 1-301 58v-272a564 564 0 0 0 196-41z m-229 44v671c-148-2-319-34-451-86l254-622a570 570 0 0 0 197 37z m-439 476a1183 1183 0 0 1-349-223l393-407a563 563 0 0 0 170 107l-10 25z m-436-646l340-159a568 568 0 0 0 117 156l-260 269a996 996 0 0 1-197-266z" horiz-adv-x="1209" />

<glyph glyph-name="universo" unicode="&#xe86c;" d="M427-13c-16 0-29 13-29 29s13 29 29 29h316l-330 329c-11 12-11 30 0 41 12 11 30 11 41 0l329-330v317c0 15 13 28 29 28 16 0 29-13 29-28v-385-1c0-16-13-29-29-29h-385l0 0z m-51-75c17 0 31-14 31-31 0-17-14-31-31-31-17 0-31 14-31 31 0 17 14 31 31 31l0 0z m569 571c17 0 31-14 31-31 0-17-14-31-31-31-17 0-31 14-31 31 0 17 14 31 31 31l0 0z m-133 221c29 0 53-24 53-53 0-29-24-53-53-53s-53 24-53 53c0 29 24 53 53 53l0 0z m-639-635c29 0 53-24 53-53s-24-53-53-53-52 24-52 53 23 53 52 53l0 0z m331 757c36 0 65-29 65-64s-29-65-65-65-65 29-65 65 29 64 65 64l0 0z m-439-437c36 0 65-29 65-65s-29-64-65-64c-36 0-65 29-65 64s29 65 65 65l0 0z m133 328c48 0 87-39 87-86s-39-87-87-87-87 39-87 87 39 86 87 86l0 0z" horiz-adv-x="1000" />

<glyph glyph-name="tv" unicode="&#xe86d;" d="M814 579c-65 1-129 0-193 1-30 0-59-5-86 16l134 207-11 7-133-206c-14 7-31 9-45 2l-142 201-10-7 141-201c-32-26-67-19-102-19-62-1-124 0-187-1-63-1-108-44-108-107-1-159-1-318 0-477 0-62 44-104 106-104 108 0 215 0 322 0 106 0 211 0 316 0 69 0 110 41 110 109 1 156 1 312 1 467 0 69-43 112-113 112l0 0z m-191-643l0 0c-1 0-2 0-3 0-1 0-3 0-5 0-12 0-22 10-22 22 0 13 10 23 22 23 0 0 0 0 0 0 2 0 4 1 6 1 2 0 4-1 6-1 11-2 19-11 19-22 0-13-10-23-23-23l0 0z m70 0l0 0c-12 0-22 10-22 22 0 13 10 23 22 23 13 0 23-10 23-23 0-12-10-22-23-22l0 0z m79 0l0 0c-13 0-23 10-23 22 0 13 10 23 23 23s22-10 22-23c0-12-10-22-22-22l0 0z m82 179l0 0c0-56-26-83-82-83-91-1-182 0-274 0-91 0-182-1-273 0-53 0-79 26-79 79-1 105-1 211 0 316 0 54 27 81 81 81 181 1 363 1 544 0 56 0 83-28 83-83 1-103 1-207 0-310l0 0z" horiz-adv-x="1000" />

<glyph glyph-name="check-1" unicode="&#xe86e;" d="M792 725h-584c-45 0-83-37-83-83v-584c0-45 38-83 83-83h584c46 0 83 38 83 83v584c0 46-37 83-83 83z m0-667h-584v584h584v-584z m-42 417l-59 59-275-274-107 107-59-59 166-166z" horiz-adv-x="1000" />

<glyph glyph-name="radio-1" unicode="&#xe86f;" d="M500 767c-230 0-417-187-417-417s187-417 417-417 417 187 417 417-187 417-417 417z m0-750c-184 0-333 149-333 333s149 333 333 333 333-149 333-333-149-333-333-333z" horiz-adv-x="1000" />

<glyph glyph-name="incubada2" unicode="&#xe870;" d="M303 503c7 10 11 22 11 36 0 36-30 66-67 66-37 0-66-30-66-66s29-67 66-67c9 0 18 2 26 5l81-74c-10-15-16-33-16-53 0-10 1-20 4-30l-44-21c-12 14-31 23-51 23-37 0-66-30-66-66s29-67 66-67c37 0 67 30 67 67 0 2-1 5-1 7l48 23c14-16 33-28 55-32v-29c-27-8-47-34-47-63 0-37 30-67 67-67s66 30 66 67c0 29-20 55-47 63v29c45 9 79 49 79 96 0 9-2 18-4 26l47 22c12-13 29-20 47-20 37 0 67 30 67 66s-30 67-67 67c-36 0-66-30-66-67 0-4 0-8 1-12l-46-21c-18 22-46 37-77 37-21 0-40-6-55-17l-78 72z m-56-275c-15 0-28 12-28 28 0 15 13 28 28 28 15 0 28-13 28-28 0-16-13-28-28-28z m377 244c15 0 28-12 28-28 0-15-13-27-28-27-15 0-28 12-28 27 0 16 13 28 28 28z m-405 67c0 15 13 27 28 27 15 0 28-12 28-27s-13-28-28-28c-15 0-28 12-28 28z m244-377c0-16-12-28-27-28-16 0-28 12-28 28s12 27 28 27c15 0 27-12 27-27z m32 188c0-33-27-59-59-59s-60 26-60 59 27 59 60 59 59-26 59-59z" horiz-adv-x="871" />

<glyph glyph-name="map" unicode="&#xe871;" d="M984 600q16-10 16-30l0-584q0-20-16-30-8-6-16-6t-18 6l-216 136-216-136q-18-10-34 0l-218 136-216-136q-16-10-34 0-16 10-16 30l0 584q0 20 16 30l234 146q18 10 34 0l216-136 218 136q16 10 32 0z m-750-450l0 506-168-104 0-506z m234-104l0 506-168 104 0-506z m234 104l0 506-170-104 0-506z m232-104l0 506-168 104 0-506z" horiz-adv-x="1000" />

<glyph glyph-name="lupa" unicode="&#xe872;" d="M834 55c10-11 10-28 0-39-11-11-29-11-40 0l-231 231c-43-34-97-55-156-55-69 0-131 28-177 73-45 46-73 108-73 177 0 69 28 132 73 177 46 45 108 73 177 73s132-28 177-73c45-45 73-108 73-177 0-59-20-113-54-156l231-231 0 0z m-291 248l2 2c35 35 57 84 57 137 0 54-22 103-57 138-36 35-84 57-138 57s-102-22-137-57-57-84-57-138c0-53 22-102 57-137 35-35 83-57 137-57 53 0 101 21 136 55l0 0z" horiz-adv-x="1000" />

<glyph glyph-name="music" unicode="&#xe873;" d="M1-16q-8 57 38 103t118 57q64 10 119-17l25 652 690 53q-32-727-34-756-1-51-45-91t-109-50q-72-10-129 22t-64 89 37 105 117 58q68 9 125-22l25 465-539-55-5-131q-6-131-12-277t-8-176l0-6q-6-50-49-89t-107-47q-70-10-127 23t-66 90z" horiz-adv-x="991" />

<glyph glyph-name="grupo" unicode="&#xe874;" d="M422 248a16 16 0 0 1-16-15v-180a16 16 0 0 1 32 0v180a16 16 0 0 1-16 15z m156 0a16 16 0 0 1-15-15v-180a16 16 0 1 1 31 0v180a16 16 0 0 1-16 15z m0 100a109 109 0 1 1-149 0c-42-8-85-45-85-92v-203a16 16 0 1 1 31 0v203c0 31 36 63 70 63h118a66 66 0 0 0 62-63v-203a16 16 0 1 1 31 0v203a97 97 0 0 1-78 92z m-152 80a78 78 0 1 0 78-78 78 78 0 0 0-78 78z m363-164a16 16 0 0 1-16-16v-187a16 16 0 0 1 32 0v187a16 16 0 0 1-16 16z m7 78a86 86 0 1 1-66-31c1 0 2 0 3 0 1 0 1 0 1 0h55a48 48 0 0 0 47-47v-156a16 16 0 1 1 31 0v156a79 79 0 0 1-71 78z m-120 55a55 55 0 1 0 54-55 55 55 0 0 0-54 55z m-332 125a86 86 0 1 0 86 86 86 86 0 0 0-86-86z m0 141a55 55 0 1 1 54-55 55 55 0 0 1-54 55z m312-141a86 86 0 1 0 86 86 86 86 0 0 0-86-86z m0 141a55 55 0 1 1 55-55 55 55 0 0 1-55 55z m-156 187a500 500 0 1 1 500-500 501 501 0 0 1-500 500z m0-31a467 467 0 0 0 320-127l-662-662a468 468 0 0 0 342 789z m0-938a467 467 0 0 0-320 127l662 662a468 468 0 0 0-342-789z m-293 383a16 16 0 0 1-16-16v-187a16 16 0 0 1 32 0v187a16 16 0 0 1-16 16z m59 219a86 86 0 0 1-66-141 79 79 0 0 1-71-78v-156a16 16 0 0 1 31 0v156a48 48 0 0 0 47 47h55c0 0 1 0 1 0 1 0 2 0 3 0a86 86 0 1 1 0 172z m0-141a55 55 0 1 0 54 55 55 55 0 0 0-54-55z" horiz-adv-x="1000" />

<glyph glyph-name="calendar-2" unicode="&#xe875;" d="M0-66l0 738q0 35 24 60t60 24l135 0 0 63q0 13 9 22t22 9 22-9 9-22l0-63 188 0 0 63q0 13 9 22t22 9 22-9 9-22l0-63 188 0 0 63q0 13 9 22t22 9 22-9 9-22l0-63 135 0q35 0 60-24t24-60l0-738q0-35-24-60t-60-24l-832 0q-35 0-60 24t-24 60z m63 0q0-10 5-16t16-6l832 0q10 0 16 6t5 16l0 738q0 10-5 16t-16 6l-135 0 0-63q0-13-9-22t-22-9-22 9-9 22l0 63-188 0 0-63q0-13-9-22t-22-9-22 9-9 22l0 63-188 0 0-63q0-13-9-22t-22-9-22 9-9 22l0 63-135 0q-10 0-16-6t-5-16l0-738z m156 135l0 94 125 0 0-94-125 0z m0 156l0 94 125 0 0-94-125 0z m0 156l0 94 125 0 0-94-125 0z m219-312l0 94 125 0 0-94-125 0z m0 156l0 94 125 0 0-94-125 0z m0 156l0 94 125 0 0-94-125 0z m218-312l0 94 125 0 0-94-125 0z m0 156l0 94 125 0 0-94-125 0z m0 156l0 94 125 0 0-94-125 0z" horiz-adv-x="1000" />

<glyph glyph-name="group" unicode="&#xe876;" d="M0 106l0 134q0 26 18 32l171 80q-66 39-68 131 0 56 35 103 37 41 90 43 31 0 63-19-49-125 23-237-12-11-25-19l-114-55q-48-23-52-84l0-143-114 0q-25 0-27 34z m193-59l0 168q0 27 22 37l152 70 57 28q-37 23-60 66t-22 94q0 76 46 130t110 54 109-54 45-130q0-106-78-158l61-30 146-70q24-10 24-37l0-168q-2-37-37-41l-541 0q-14 2-24 14t-10 27z m473 330q68 106 22 231 31 19 66 21 49 0 90-43 35-41 35-103 0-82-65-131l168-80q18-10 18-32l0-134q0-32-27-34l-118 0 0 143q0 57-50 84l-110 53q-15 8-29 25z" horiz-adv-x="1000" />

<glyph glyph-name="graduation-cap" unicode="&#xe877;" d="M0 564q0 13 12 18l625 196q3 1 6 1t5-1l625-196q13-5 13-18t-13-17l-625-196q-2-1-5-1t-6 1l-364 115q-24-19-39-63t-19-99q35-20 35-61 0-39-32-60l32-241q1-8-4-14-5-7-14-7h-107q-8 0-13 7-6 6-5 14l33 241q-33 21-33 60 0 41 36 62 7 115 55 184l-186 58q-12 4-12 17z m286-357l10 176 320-101q12-3 27-3t27 3l320 101 10-176q2-38-46-71t-131-52-180-20-180 20-131 52-46 71z" horiz-adv-x="1285.7" />

<glyph glyph-name="chat" unicode="&#xe878;" d="M0 421q0 78 53 144t143 104 197 38 197-38 143-104 53-144-53-143-143-104-197-38q-48 0-98 9-70-50-155-72-21-5-48-9h-2q-6 0-12 5t-6 11q-1 2-1 4t1 4 1 3l1 3t2 3 2 3 3 2 2 3q3 3 13 14t15 16 12 17 14 21 11 25q-69 40-108 98t-40 125z m344-354q32-3 49-3 90 0 172 25t148 72q69 52 107 119t37 141q0 43-13 85 72-39 114-99t42-128q0-67-40-126t-108-98q5-14 11-25t14-21 13-16 14-17 13-14q0 0 2-2t3-3 2-3 2-3l1-3t1-3 1-4-1-3q-2-8-7-13t-13-4q-27 4-48 9-85 23-155 72-50-9-98-9-151 0-263 74z" horiz-adv-x="1000" />

<glyph glyph-name="intercambio_mapa" unicode="&#xe879;" d="M414-64c0 7 0 14 7 14 22 21 36 43 65 57 14 14 14 29 0 43-7 7-7 7-7 14 0 7 0 7 0 15 0 14-8 14-15 14-7 0-7 0-7 7 0 7-7 14-7 21 0 8-7 15-14 15-7 0-22 0-29 0-7 0-7 0-7 7 0 14 0 21-7 36 0 7 0 14 0 21 0 7 7 14 7 21 7 15 0 22-7 29-7 7-7 14-7 21 0 8-7 8-7 8-8 0-22 0-29 0-7 0-14 0-14 7 0 7-7 14 0 28 7 7 0 22-7 22-8 7-15 14-29 14-14 0-29 7-36 14-7 7-7 7-14 0 0 0-7 0-7 0-14 15-29 22-29 43 0 7 0 14 0 22 0 7 0 7-7 7-14 0-28-7-36-22 0-7-7-7-14-7-7 0-14 0-14-7-7-7-14-7-22-7-7 0-14 7-28 0-7 0-14 7-14 14 0 7 0 14 0 22 0-8-15-8-22-8-7 0-14 0-14 8 0 7-7 7-7 7 0 0-7 0-15 0 8 7 8 14 0 21-7 0-14 7-14 14-14 15-7 22 7 29 7 0 7 7 7 7 0 22 8 36 29 50 14 7 21 14 36 7 7 0 7 0 7 7 0 22 7 43 14 65 0 14 0 28-14 28 0 0-7 0-7 7 0 8 0 15 7 15 0 0 7 0 7 0 0 0 7 0 7 0 0 0 0 7-7 7-7 0-7 0-7 7 0 7 0 7 7 7 7 0 21 7 29 7 0 0 7 0 7 0 7-14 14 0 14 7 0 0 0 0 0 0 7-7 7-7 7-14 7-14 22-21 36-14 21 14 43 21 57 36 7 0 7 7 0 7-7 14-14 21-21 35 0 0-8 8 0 8 0 0 7 0 7 0 7 0 14 0 21-8 7 0 14 0 22 8 0 7 7 7 14 7 14 0 21 7 28 14 8 7 15 7 22 7-7-14 0-14 7-21 7-7 7-15 0-22-7-14-7-21 0-35 7-15 14-22 29-15 7 0 14 0 21 7 7 8 21 8 29 8 7 0 14 0 7 7 0 0 0 0 0 7 7 0 14 0 14 7 7 7 7 0 14 0 7-7 15-7 22-7 14 0 21 7 28 21 22 57 86 93 143 93 64-7 114-50 136-107 7-36 0-71-7-114 0-7 0-7-7-15-8-14-8-14 7-14 7 0 21 0 28 0 7 0 15 0 22-7 21-14 35-29 57-43 14-7 21-14 36-21 7 0 14-7 14-15 14-21 14-42 0-71 0-7-7-14-14-14-22-22-43-50-65-72-7-7-7-7-14-14-14-7-21-14-14-29 0-35 0-64-15-92 0-8-7-8-7-15-7-7-7-14-7-21 0-7 0-7-7-14-7-8-14-15-21-29-8-7-8-14-8-21 0-8 0-8-7-8-7 0-7-7-14-7-7-14-21-14-36-7-14 7-28 0-43-7-7-7-14-14-28-14-7 0-7 0-7-7-15-15-29-22-43-36-7-7-7-14-7-22 0-7 0-14 0-21 0-14 0-29-15-43-7-7-14-14-21-28-7-8-14-15-14-29-7-7-15-14-22-21-14-8-21-22-28-36 21 14 21 7 14 7-7 0-7 14 0 21 7 8 0 15 0 15-7 7-14 14-29 21 0 0-7 7-7 7 0 7-7 15-14 7 0 0 0 0-7 0 0 0-7 8-7 8-7 7-7 14-22 7z m243 521c7 7 7 7 0 0 43 57 72 114 93 179 7 28 14 64 7 93-14 57-71 92-128 85-58-14-93-71-86-128 7-36 21-72 43-100 21-43 43-86 71-129z m-7 179c-36 0-57 28-57 64 0 36 28 64 64 64 36 0 64-28 64-64-7-36-35-64-71-64z" horiz-adv-x="964" />

<glyph glyph-name="intercambio_galeria" unicode="&#xe87a;" d="M979 257c0-128 0-264 0-393 0-7 0-14-15-14-243 0-485 0-721 0-7 0-14 0-14 14 0 36 0 65 0 100 0 7 0 7-8 7-35-7-71-7-114-14-7 0-14 0-14 7-7 86-14 165-29 243-7 72-14 143-28 222-7 71-15 142-29 221 0 29 0 71-7 107 0 7 0 7 7 7 93 15 193 22 286 36 78 7 157 21 236 29 71 7 135 14 207 21 7 0 7 0 7-7 7-57 14-114 21-172 0-7 7-7 15-7 64 0 128 0 192 0 8 0 15 0 15-14-7-136-7-264-7-393z m-43 0c0 122 0 236 0 357 0 7 0 15-15 15-214 0-428 0-650 0-7 0-14 0-14-15 0-235 0-471 0-707 0-7 0-14 14-14 215 0 436 0 650 0 8 0 15 0 15 14 0 114 0 229 0 350z m-707-150c0 29 0 64 0 93 0 7 0 7-8 7-21 0-35 0-50-7-7 0-14 7-14 7 0 22-7 50-7 72 0 35-7 71-7 107-7 28-14 64-14 93-8 35-8 64-15 100 0 28-7 57-7 92 0 8 0 8 7 8 7 0 15 0 22 0 43 7 78 14 114 14 43 7 79 7 114 14 50 7 100 14 150 22 29 0 57 7 79 7 21 0 36 7 57 7 7 0 7 0 7-7 0-22 7-43 7-72 0-7 0-7 7-7 15 0 29 0 43 0 7 0 7 0 7 7 0 50-7 93-7 129 0 14-7 14-14 14-14 0-36-7-50-7-36-7-71-7-107-14-36 0-79-7-122-15-35 0-71-7-100-7-42-7-85-14-128-14-50-7-100-14-143-21-7 0-7-8-7-8 7-57 14-114 21-171 7-50 15-93 15-143 7-50 14-93 14-143 7-43 7-85 14-135 7-43 14-86 14-129 0-7 8-14 15-7 28 7 50 7 78 7 7 0 7 7 7 14 8 36 8 65 8 93z m371-14c-93 0-179 0-271 0-8 0-15 0-15 14 0 150 0 307 0 457 0 7 0 7 7 7 179 0 358 0 543 0 7 0 7 0 7-7 0-150 0-307 0-457 0-7 0-7-14-7-78-7-164-7-257-7z" horiz-adv-x="979" />

</font>
</defs>
</svg>
